BitTorrentTracker PerecTracker.org
BitTorrentTracker PerecTracker.org
    
Регистрация  ·  Вход
 
 · 
Забыли пароль?

  • Защитник / Concussion (Питер Ландесман / Peter Landesman) [2015, Великобритания, Австралия, США, драма, биография, спорт, BDRip-AVC] Dub + Sub (rus)

    Ответить на тему
     
    Автор Сообщение

    Light

    Создавать темы 18-Июл-2016 07:20

           

    [Цитировать]

    Защитник
    Concussion
    «Even Legends Need a Hero»

    Страна: Великобритания, Австралия, США
    Жанр: драма, биография, спорт
    Год выпуска: 2015
    Продолжительность: 02:02:50
    Перевод: Профессиональный (полное дублирование) [Blu-Ray CEE]
    Субтитры: русские (форсированные)
    Оригинальная аудиодорожка: нет
    Режиссер: Питер Ландесман / Peter Landesman
    В ролях: Уилл Смит, Алек Болдуин, Альберт Брукс, Гугу Эмбата-Ро, Дэвид Морс, Арлисс Ховард, Майк О’Мэлли, Эдди Марсан, Хилл Харпер, Адевале Акинойе-Агбаже, Стивен Мойер, Ричард Т. Джонс
    Описание:
    В Америке один за одним неожиданно и загадочно умирают знаменитые спортсмены. Молодой, но талантливый патологоанатом хочет докопаться до истины, однако не всем нужна правда.


    Автор рипа: stalkerok
    Сэмпл
    Качество видео: BDRip-AVC [Concussion (2015) Blu-Ray CEE RUTOR]
    Формат видео: MKV
    Видео: 783 Кбит/сек, 746*312 (2,40:1), в 23,976 (24000/1001) кадра/сек, AVC
    Аудио: русский, 64,0 Кбит/сек, 48,0 КГц / 24,0 КГц, 2 канала, AAC (HE-AAC / LC)
    Навигация по главам: есть

    MediaInfo

    Общее
    Уникальный идентификатор : 196223058503711968577110331472748510629 (0x939F2FB8E7510D5F9675F5B0651C7DA5)
    Полное имя : M:\2Rips\Concussion\Concussion.2015.BDRip-AVC.Dub.745Mb.stalkerok.new-team.mkv
    Формат : Matroska
    Версия формата : Version 4 / Version 2
    Размер файла : 746 Мбайт
    Продолжительность : 2 ч. 2 м.
    Общий поток : 849 Кбит/сек
    Название фильма : Concussion (2015) (Rip by stalkerok)
    Дата кодирования : UTC 2016-07-17 10:57:46
    Программа кодирования : mkvmerge v8.6.1 ('Flying') 64bit
    Библиотека кодирования : libebml v1.3.3 + libmatroska v1.4.4
    Видео
    Идентификатор : 1
    Формат : AVC
    Формат/Информация : Advanced Video Codec
    Профиль формата : High@L4.1
    Параметр CABAC формата : Да
    Параметр ReFrames формата : 16 кадров
    Идентификатор кодека : V_MPEG4/ISO/AVC
    Продолжительность : 2 ч. 2 м.
    Битрейт : 783 Кбит/сек
    Ширина : 746 пикселей
    Высота : 312 пикселей
    Соотношение сторон : 2,40:1
    Режим частоты кадров : Постоянный
    Частота кадров : 23,976 (24000/1001) кадра/сек
    Цветовое пространство : YUV
    Субдискретизация насыщенности : 4:2:0
    Битовая глубина : 8 бит
    Тип развёртки : Прогрессивная
    Бит/(Пиксели*Кадры) : 0.140
    Размер потока : 688 Мбайт (92%)
    Заголовок : Concussion (2015) (Rip by stalkerok)
    Библиотека кодирования : x264 core 148 r2705+54 9f484c1 t_mod_Custom [8-bit@all X86_64]
    Настройки программы : cabac=1 / ref=16 / deblock=1:-3:-2 / analyse=0x3:0x133 / me=umh / subme=11 / psy=1 / fade_compensate=0.00 / psy_rd=1.00:0.00 / mixed_ref=1 / me_range=32 / chroma_me=1 / trellis=2 / 8x8dct=1 / cqm=0 / deadzone=21,11 / fast_pskip=0 / chroma_qp_offset=-2 / threads=10 / lookahead_threads=2 / sliced_threads=0 / nr=0 / decimate=0 / interlaced=0 / bluray_compat=0 / constrained_intra=0 / fgo=0 / bframes=16 / b_pyramid=2 / b_adapt=2 / b_bias=0 / direct=3 / weightb=1 / open_gop=0 / weightp=2 / keyint=240 / keyint_min=23 / scenecut=40 / intra_refresh=0 / rc_lookahead=60 / rc=2pass / mbtree=0 / bitrate=783 / ratetol=1.0 / qcomp=0.65 / qpmin=0:0:0 / qpmax=69:69:69 / qpstep=4 / cplxblur=20.0 / qblur=0.5 / vbv_maxrate=50000 / vbv_bufsize=62500 / nal_hrd=none / filler=0 / ip_ratio=1.40 / pb_ratio=1.30 / aq=3:0.90 / aq-sensitivity=10.00 / aq-factor=1.00:1.00:1.00 / aq2=0 / aq3=0
    Default : Да
    Forced : Нет
    Аудио
    Идентификатор : 2
    Формат : AAC
    Формат/Информация : Advanced Audio Codec
    Профиль формата : HE-AAC / LC
    Идентификатор кодека : A_AAC
    Продолжительность : 2 ч. 2 м.
    Битрейт : 64,0 Кбит/сек
    Каналы : 2 канала
    Расположение каналов : Front: L R
    Частота : 48,0 КГц / 24,0 КГц
    Частота кадров : 23,438 кадра/сек (1024 spf)
    Метод сжатия : С потерями
    Задержка видео : 31 мс.
    Размер потока : 56,2 Мбайт (8%)
    Язык : Russian
    Default : Да
    Forced : Нет
    Текст
    Идентификатор : 3
    Формат : UTF-8
    Идентификатор кодека : S_TEXT/UTF8
    Идентификатор кодека/Информация : UTF-8 Plain Text
    Продолжительность : 1 ч. 56 м.
    Битрейт : 1 бит/сек
    Count of elements : 20
    Размер потока : 1,56 Кбайт (0%)
    Заголовок : Forced
    Язык : Russian
    Default : Да
    Forced : Нет
    Меню
    00:00:00.000 : en:Chapter 1
    00:07:26.696 : en:Chapter 2
    00:14:41.630 : en:Chapter 3
    00:21:48.098 : en:Chapter 4
    00:29:36.566 : en:Chapter 5
    00:37:42.927 : en:Chapter 6
    00:43:44.538 : en:Chapter 7
    00:51:30.712 : en:Chapter 8
    00:59:35.446 : en:Chapter 9
    01:06:58.264 : en:Chapter 10
    01:13:07.508 : en:Chapter 11
    01:22:18.308 : en:Chapter 12
    01:30:34.720 : en:Chapter 13
    01:38:15.097 : en:Chapter 14
    01:46:46.942 : en:Chapter 15
    01:53:34.808 : en:Chapter 16

    Скриншоты

    Скачать .torrent

    Скачать торрент-файл бесплатно и на максимальной скорости!

    Как скачивать? · Что такое торрент? · Рейтинг и ограничения

    !ВНИМАНИЕ!
    Сайт не распространяет и не хранит электронные версии произведений, а занимается лишь лишь предоставлением доступа к создаваемому пользователями каталогу ссылок на торрент-файлы, которые содержат только списки хеш-сумм, убедительная просьба с жалобами обращаться напрямую к пользователю. Файлы для обмена на трекере предоставлены пользователями сайта, и администрация не несёт ответственности за их содержание. Просьба не заливать файлы, защищенные авторскими правами, а также файлы нелегального содержания!


    _________________
    [Профиль] [ЛС]
    Показать сообщения:    
    Ответить на тему

    Текущее время: Сегодня, в 00:09

    Часовой пояс: GMT + 2



    Вы не можете начинать темы
    Вы не можете отвечать на сообщения
    Вы не можете редактировать свои сообщения
    Вы не можете удалять свои сообщения
    Вы не можете голосовать в опросах
    Вы не можете прикреплять файлы к сообщениям
    Вы не можете скачивать файлы