BitTorrentTracker PerecTracker.org
BitTorrentTracker PerecTracker.org
    
Регистрация  ·  Вход
 
 · 
Забыли пароль?

  • Зелёная комната / Green Room (Джереми Солнье / Jeremy Saulnier) [2015, США, Триллер, криминал, BDRip] VO (Есарев)

    Ответить на тему
     
    Автор Сообщение

    Light

    Создавать темы 18-Июл-2016 07:20

           

    [Цитировать]

    Зелёная комната / Green Room-Год выхода: 2015
    Выпущено: США / Broad Green Pictures
    Жанр: триллер, криминал
    Продолжительность: 01:35:01
    Перевод: Одноголосый закадровый Дмитрий Есарев
    Субтитры: нет-Режиссер:
    Джереми Солнье / Jeremy Saulnier-В ролях:
    Антон Ельчин (Pat), Джо Коул (Reece), Алиа Шокат (Sam), Каллум Тернер (Tiger), Дэвид В. Томпсон (Tad), Марк Веббер (Daniel), Мэйкон Блэр (Gabe), Эрик Эдельштейн (Big Justin), Майкл Дрэйпер (Stagehand), Andy Copeland (Stage Manager), Брент Уэрзнер (Werm), ЭлДжей Клинк (Guitarist), Имоджен Путс (Amber), Патрик Стюарт (Darcy)-О фильме:
    Панк-группа из четырёх человек колесит по Америке на небольшом фургончике. Дают концерты, где придётся, и считают копейки. И тут выпадает возможность подзаработать на концерте в общине скинхедов чуть больше, чем обычно. Конечно же они соглашаются. Всё, вроде бы проходит неплохо, но после концерта они становятся свидетелями убийства в гримёрке с зелёными стенами.-Релиз групп
    | | IMDB | КиноПоиск | Сэмпл | Мата нет!-Качество: BDRip [Green Room 2015 1080p Blu-ray AVC DTS-HD MA 5.1-MTeam]
    Формат: AVI
    Видео: 720x304 (2.37:1), 23.976 fps, XviD build 67 ~1736 kbps avg, 0.33 bit/pixel
    Аудио: 48 kHz, AC3 Dolby Digital, 3/2 (L,C,R,l,r) + LFE ch, ~448 kbps avg-

    Скриншоты

    -

    MediaInfo

    Общее
    Полное имя                               : D:\Zelenaya_komnata_2015_BDRip_VO_by_Dalemake.avi
    Формат                                   : AVI
    Формат/Информация                        : Audio Video Interleave
    Размер файла                             : 1,46 Гбайт
    Продолжительность                        : 1 ч. 35 м.
    Общий поток                              : 2194 Кбит/сек
    Программа кодирования                    : VirtualDubMod 1.5.10.3 | www.virtualdub-fr.org || (build 2550/release)
    Библиотека кодирования                   : VirtualDubMod build 2550/release
    Видео
    Идентификатор                            : 0
    Формат                                   : MPEG-4 Visual
    Профиль формата                          : Advanced Simple@L5
    Параметр BVOP формата                    : 1
    Параметр QPel формата                    : Нет
    Параметр GMC формата                     : Без точки перехода
    Параметр матрицы формата                 : Выборочная
    Идентификатор кодека                     : XVID
    Идентификатор кодека/Подсказка           : XviD
    Продолжительность                        : 1 ч. 35 м.
    Битрейт                                  : 1737 Кбит/сек
    Ширина                                   : 720 пикселей
    Высота                                   : 304 пикселя
    Соотношение сторон                       : 2,35:1
    Частота кадров                           : 23,976 кадра/сек
    Цветовое пространство                    : YUV
    Субдискретизация насыщенности            : 4:2:0
    Битовая глубина                          : 8 бит
    Тип развёртки                            : Прогрессивная
    Метод сжатия                             : С потерями
    Бит/(Пиксели*Кадры)                      : 0.331
    Размер потока                            : 1,15 Гбайт (79%)
    Библиотека кодирования                   : XviD 67
    Аудио
    Идентификатор                            : 1
    Формат                                   : AC-3
    Формат/Информация                        : Audio Coding 3
    Расширение режима                        : CM (complete main)
    Параметр Endianness формата              : Big
    Идентификатор кодека                     : 2000
    Продолжительность                        : 1 ч. 35 м.
    Вид битрейта                             : Постоянный
    Битрейт                                  : 448 Кбит/сек
    Каналы                                   : 6 каналов
    Расположение каналов                     : Front: L C R, Side: L R, LFE
    Частота                                  : 48,0 КГц
    Битовая глубина                          : 16 бит
    Метод сжатия                             : С потерями
    Размер потока                            : 305 Мбайт (20%)
    Выравнивание                             : Разделение по промежуткам
    Продолжительность промежутка             : 42  мс. (1,00 видеокадр)
    Время предзагрузки промежутка            : 500  мс.
    Цитата:
    Цитата:

    Перевод Дмитрия Есарева доступен благодаря - mv73, mihaildns, kidman644, iVov4ik, shagrath88, RW, shurikkein, ana2363, DREADG, Shrooms, Pr0peLLer, Loki1982, J. Green, walledol.
    -
    Скачать .torrent

    Скачать торрент-файл бесплатно и на максимальной скорости!

    Как скачивать? · Что такое торрент? · Рейтинг и ограничения

    !ВНИМАНИЕ!
    Сайт не распространяет и не хранит электронные версии произведений, а занимается лишь лишь предоставлением доступа к создаваемому пользователями каталогу ссылок на торрент-файлы, которые содержат только списки хеш-сумм, убедительная просьба с жалобами обращаться напрямую к пользователю. Файлы для обмена на трекере предоставлены пользователями сайта, и администрация не несёт ответственности за их содержание. Просьба не заливать файлы, защищенные авторскими правами, а также файлы нелегального содержания!


    _________________
    [Профиль] [ЛС]
    Показать сообщения:    
    Ответить на тему

    Текущее время: Сегодня, в 00:03

    Часовой пояс: GMT + 2



    Вы не можете начинать темы
    Вы не можете отвечать на сообщения
    Вы не можете редактировать свои сообщения
    Вы не можете удалять свои сообщения
    Вы не можете голосовать в опросах
    Вы не можете прикреплять файлы к сообщениям
    Вы не можете скачивать файлы