BitTorrentTracker PerecTracker.org
BitTorrentTracker PerecTracker.org
    
Регистрация  ·  Вход
 
 · 
Забыли пароль?

  • Апачи / Apachen (Готфрид Кольдитц / Gottfried Kolditz) [1973, Германия (ГДР), Румыния, СССР, вестерн, BDRip 720p] Dub + Sub Eng + Original Ger

    Ответить на тему
     
    Автор Сообщение

    Light

    Создавать темы 17-Июл-2016 22:44

           

    [Цитировать]

    Апачи / Apachen
    Страна: Германия (ГДР), Румыния, СССР
    Жанр: вестерн
    Год выпуска: 1973
    Продолжительность: 01:29:47
    Перевод: Профессиональный (дублированный)
    Cубтитры: английские
    Оригинальная аудиодорожка: немецкий-Режиссер: Готфрид Кольдитц / Gottfried Kolditz-В ролях: Гойко Митич, Милан Бели, Коля Рэуту, Леон Немчик, Джерри Вольф, Эльза Грубе-Дайстер, Фред Людвиг, Фред Дельмаре, Хартмут Бер, Хорст Кубе-Описание: Действие фильма происходит в пограничной области между США и Мексикой в 1848 году, когда Мексике пришлось уступить Америке территорию нынешних штатов Аризона, Нью-Мексико, Юта и Колорадо. Апачи племени мимбреньо в «Новой Испании» заключают с мексиканской горнопромышленной компанией договор, позволяющий мексиканцам производить разведочные работы.
    Однако залежи благородных металлов привлекают сюда и американского геолога Джонсона. Он зарится на эти земли и расстреливает в селении Санта-Рита индейцев из армейской пушки. Кроме того, он получает огромную премию за их скальпы. Лишь немногие из индейцев остаются в живых и скрываются, в их числе вождь Ульзана. Законы племени требуют покарать убийцу. Смогут ли они отомстить?-Релиз:
    | Рип от SbR-Качество видео: BDRip | Sample
    Формат видео: MKV
    Видео: 1280x544 at 25.000 fps, x264@L4.1, ~ 7155 kbps avg
    Аудио 1: Russian: 48 kHz, AC3, 2.0 ch, ~192 kbps avg |Дубляж|
    Аудио 2: German: 48 kHz, FLAC, 2.0 ch, ~429 kbps avg-Дополнительно
    Цитата:
    Цитата:

    • Спонсоры работы: ns112bel, DamnU2, gelom, bacchuster, Juve, serlim, dekapot, tambov68, MDV, arka, exact, ntktuf, chplintik13, lib72, larushkin1303, FoggyDew, irrlicht, malyaka, givi070, bambula2766, asquenko. Раздача золотом.
    • В дубляже не переведены несколько незначительных фраз.
    • Сохранены оригинальные главы как на Blu-ray

    MediaInfo

    Format                      : Matroska
    Format version              : Version 4 / Version 2
    File size                   : 4.88 GiB
    Duration                    : 1h 29mn
    Overall bit rate mode       : Variable
    Overall bit rate            : 7 779 Kbps
    Encoded date                : UTC 2016-07-15 16:11:52
    Writing application         : mkvmerge v8.3.0 ('Over the Horizon') 32bit
    Writing library             : libebml v1.3.1 + libmatroska v1.4.2
    Cover                       : Yes
    Attachments                 : cover.jpg
    Video
    ID                          : 1
    Format                      : AVC
    Format/Info                 : Advanced Video Codec
    Format profile              : High@L4.1
    Format settings, CABAC      : Yes
    Format settings, ReFrames   : 12 frames
    Codec ID                    : V_MPEG4/ISO/AVC
    Duration                    : 1h 29mn
    Bit rate                    : 7 156 Kbps
    Width                       : 1 280 pixels
    Height                      : 544 pixels
    Display aspect ratio        : 2.35:1
    Frame rate mode             : Constant
    Frame rate                  : 25.000 fps
    Color space                 : YUV
    Chroma subsampling          : 4:2:0
    Bit depth                   : 8 bits
    Scan type                   : Progressive
    Bits/(Pixel*Frame)          : 0.411
    Stream size                 : 4.49 GiB (92%)
    Writing library             : x264 core 148 r2705+54 9f484c1 t_mod_Custom [8-bit@all X86_64]
    Encoding settings           : cabac=1 / ref=12 / deblock=1:-3:-3 / analyse=0x3:0x133 / me=umh / subme=10 / psy=1 / fade_compensate=0.00 / psy_rd=1.10:0.05 / mixed_ref=1 / me_range=24 / chroma_me=1 / trellis=2 / 8x8dct=1 / cqm=0 / deadzone=21,11 / fast_pskip=0 / chroma_qp_offset=-3 / threads=6 / lookahead_threads=1 / sliced_threads=0 / nr=0 / decimate=1 / interlaced=0 / bluray_compat=0 / constrained_intra=0 / fgo=0 / bframes=9 / b_pyramid=2 / b_adapt=2 / b_bias=0 / direct=3 / weightb=1 / open_gop=0 / weightp=2 / keyint=250 / keyint_min=25 / scenecut=40 / intra_refresh=0 / rc_lookahead=60 / rc=crf / mbtree=0 / crf=15.8000 / qcomp=0.60 / qpmin=0:0:0 / qpmax=69:69:69 / qpstep=4 / vbv_maxrate=62500 / vbv_bufsize=78125 / crf_max=0.0 / nal_hrd=none / filler=0 / ip_ratio=1.40 / pb_ratio=1.30 / aq=1:0.60 / aq-sensitivity=10.00 / aq-factor=1.00:1.00:1.00 / aq2=0 / aq3=0
    Language                    : English
    Default                     : Yes
    Forced                      : No
    Color range                 : Limited
    Color primaries             : BT.709
    Transfer characteristics    : BT.709
    Matrix coefficients         : BT.709
    Audio #1
    ID                          : 2
    Format                      : AC-3
    Format/Info                 : Audio Coding 3
    Mode extension              : CM (complete main)
    Format settings, Endianness : Big
    Codec ID                    : A_AC3
    Duration                    : 1h 29mn
    Bit rate mode               : Constant
    Bit rate                    : 192 Kbps
    Channel(s)                  : 2 channels
    Channel positions           : Front: L R
    Sampling rate               : 48.0 KHz
    Frame rate                  : 31.250 fps (1536 spf)
    Compression mode            : Lossy
    Stream size                 : 123 MiB (2%)
    Title                       : Дубляж
    Language                    : Russian
    Default                     : Yes
    Forced                      : No
    Audio #2
    ID                          : 3
    Format                      : FLAC
    Format/Info                 : Free Lossless Audio Codec
    Codec ID                    : A_FLAC
    Duration                    : 1h 29mn
    Bit rate mode               : Variable
    Bit rate                    : 429 Kbps
    Channel(s)                  : 2 channels
    Channel positions           : Front: L R
    Sampling rate               : 48.0 KHz
    Frame rate                  : 11.719 fps (4096 spf)
    Bit depth                   : 16 bits
    Stream size                 : 275 MiB (6%)
    Writing library             : libFLAC 1.2.1 (UTC 2007-09-17)
    Language                    : German
    Default                     : No
    Forced                      : No
    Text
    ID                          : 4
    Format                      : UTF-8
    Codec ID                    : S_TEXT/UTF8
    Codec ID/Info               : UTF-8 Plain Text
    Duration                    : 1h 27mn
    Bit rate                    : 23 bps
    Count of elements           : 497
    Stream size                 : 14.9 KiB (0%)
    Language                    : English
    Default                     : No
    Forced                      : No
    Menu
    00:00:00.000                : en:00:00:00.000
    00:09:19.560                : en:00:09:19.560
    00:16:14.200                : en:00:16:14.200
    00:31:21.000                : en:00:31:21.000
    00:44:45.720                : en:00:44:45.720
    00:58:06.280                : en:00:58:06.280
    01:09:55.240                : en:01:09:55.240

    Скриншоты

    Скачать .torrent

    Скачать торрент-файл бесплатно и на максимальной скорости!

    Как скачивать? · Что такое торрент? · Рейтинг и ограничения

    !ВНИМАНИЕ!
    Сайт не распространяет и не хранит электронные версии произведений, а занимается лишь лишь предоставлением доступа к создаваемому пользователями каталогу ссылок на торрент-файлы, которые содержат только списки хеш-сумм, убедительная просьба с жалобами обращаться напрямую к пользователю. Файлы для обмена на трекере предоставлены пользователями сайта, и администрация не несёт ответственности за их содержание. Просьба не заливать файлы, защищенные авторскими правами, а также файлы нелегального содержания!


    _________________
    [Профиль] [ЛС]
    Показать сообщения:    
    Ответить на тему

    Текущее время: Сегодня, в 20:55

    Часовой пояс: GMT + 2



    Вы не можете начинать темы
    Вы не можете отвечать на сообщения
    Вы не можете редактировать свои сообщения
    Вы не можете удалять свои сообщения
    Вы не можете голосовать в опросах
    Вы не можете прикреплять файлы к сообщениям
    Вы не можете скачивать файлы