BitTorrentTracker PerecTracker.org
BitTorrentTracker PerecTracker.org
    
Регистрация  ·  Вход
 
 · 
Забыли пароль?

  • Суперзвезда / Superstar (Брюс МакКаллок / Bruce McCulloch) [1999, США, мелодрама, комедия, WEB-DL 720p] MVO (Премьер) + Sub Eng + Original Eng

    Ответить на тему
     
    Автор Сообщение

    Light

    Создавать темы 17-Июл-2016 22:44

           

    [Цитировать]

    Суперзвезда / Superstar
    Страна: США
    Студия: SNL Studios
    Жанр: мелодрама, комедия
    Год выпуска: 1999
    Продолжительность: 01:21:46
    Перевод: Профессиональный (многоголосый закадровый) Премьер Видео Фильм
    Cубтитры: английские
    Оригинальная аудиодорожка: английский
    Режиссер: Брюс МакКаллок / Bruce McCulloch
    В ролях: Молли Шеннон, Уилл Феррелл, Илэйн Хендрикс, Харланд Уильямс, Марк МакКинни, Глинис Джонс, Джейсон Бликер, Джерри Бэммен, Эмми Лэйборн, Дженнифер Ирвин
    Описание: Все, что нужно от жизни прилежной школьнице Мэри Кэтрин Галлахер, так это поцелуй. Но не простой поцелуй, надо заметить. Мэри нужен настоящий, крепкий, сочный, бесконечный поцелуй, от которого перехватывает дыхание и сводит конечности. Настоящий голливудский поцелуй, когда от нахлынувших чувств кружится голова и подкашиваются ноги. Казалось бы, список жизненных запросов Мэри включает в себя лишь один единственный пункт, и Господь вполне мог бы пойти ей в этом навстречу. Но, увы, тщетны все старания Мэри: целовать ее никто не собирается. И тогда она понимает, что единственный способ заполучить свой заветный поцелуй - это стать суперзвездой!!!

    Sample
    Тип релиза: WEB-DL 720p
    Контейнер: MKV
    Видео: MPEG4 AVC Video, H264, 16:9, 1280x718, 23.976 fps, 3811 kbps
    Аудио: Russian (AC3, 2 ch, 192 kbps, 16 bits, 48.0 KHz) - MVO
    Аудио 2: English (AC3, 6 ch, 384 kbps, 16 bits, 48.0 KHz) - оригинал
    Формат субтитров: softsub (SRT)

    MediaInfo

    General
    Unique ID : 237698344091524220744011884180042557951 (0xB2D3092E3BB359FAB24BC2A91A0229FF)
    Complete name : E:\Superstar 1999 WEB-DL 720p.mkv
    Format : Matroska
    Format version : Version 4 / Version 2
    File size : 2.56 GiB
    Duration : 1h 21mn
    Overall bit rate : 4 476 Kbps
    Encoded date : UTC 2016-07-16 13:03:59
    Writing application : mkvmerge v6.1.0 ('Old Devil') built on Mar 2 2013 14:32:37
    Writing library : libebml v1.3.0 + libmatroska v1.4.0
    Video
    ID : 1
    Format : AVC
    Format/Info : Advanced Video Codec
    Format profile : High@L3.1
    Format settings, CABAC : No
    Format settings, ReFrames : 2 frames
    Codec ID : V_MPEG4/ISO/AVC
    Duration : 1h 21mn
    Bit rate : 3 811 Kbps
    Width : 1 280 pixels
    Height : 718 pixels
    Display aspect ratio : 16:9
    Frame rate mode : Constant
    Frame rate : 23.976 fps
    Color space : YUV
    Chroma subsampling : 4:2:0
    Bit depth : 8 bits
    Scan type : Progressive
    Bits/(Pixel*Frame) : 0.173
    Stream size : 2.18 GiB (85%)
    Language : English
    Default : Yes
    Forced : No
    Color primaries : BT.709
    Transfer characteristics : BT.709
    Matrix coefficients : BT.709
    Audio #1
    ID : 2
    Format : AC-3
    Format/Info : Audio Coding 3
    Mode extension : CM (complete main)
    Format settings, Endianness : Big
    Codec ID : A_AC3
    Duration : 1h 21mn
    Bit rate mode : Constant
    Bit rate : 192 Kbps
    Channel count : 2 channels
    Channel positions : Front: L R
    Sampling rate : 48.0 KHz
    Bit depth : 16 bits
    Compression mode : Lossy
    Stream size : 112 MiB (4%)
    Language : Russian
    Default : Yes
    Forced : No
    Audio #2
    ID : 3
    Format : AC-3
    Format/Info : Audio Coding 3
    Mode extension : CM (complete main)
    Format settings, Endianness : Big
    Codec ID : A_AC3
    Duration : 1h 21mn
    Bit rate mode : Constant
    Bit rate : 384 Kbps
    Channel count : 6 channels
    Channel positions : Front: L C R, Side: L R, LFE
    Sampling rate : 48.0 KHz
    Bit depth : 16 bits
    Compression mode : Lossy
    Stream size : 225 MiB (9%)
    Language : English
    Default : No
    Forced : No
    Text
    ID : 4
    Format : UTF-8
    Codec ID : S_TEXT/UTF8
    Codec ID/Info : UTF-8 Plain Text
    Language : English
    Default : No
    Forced : No
    Menu
    00:00:00.000 : en:Mary Katherine Gallagher
    00:11:10.000 : en:Special Ed
    00:15:17.000 : en:Talent Contest
    00:22:31.000 : en:Nice Moves
    00:28:39.000 : en:"Spirit In The Sky"
    00:31:15.000 : en:Sign Up Problems
    00:37:59.000 : en:Step Dance Deaths
    00:41:42.000 : en:Break Up
    00:48:30.000 : en:Audition
    00:57:26.000 : en:Razzle Dazzle
    01:01:57.000 : en:The Show
    01:18:09.000 : en:End Credits

    Скриншоты

    Скачать .torrent

    Скачать торрент-файл бесплатно и на максимальной скорости!

    Как скачивать? · Что такое торрент? · Рейтинг и ограничения

    !ВНИМАНИЕ!
    Сайт не распространяет и не хранит электронные версии произведений, а занимается лишь лишь предоставлением доступа к создаваемому пользователями каталогу ссылок на торрент-файлы, которые содержат только списки хеш-сумм, убедительная просьба с жалобами обращаться напрямую к пользователю. Файлы для обмена на трекере предоставлены пользователями сайта, и администрация не несёт ответственности за их содержание. Просьба не заливать файлы, защищенные авторскими правами, а также файлы нелегального содержания!


    _________________
    [Профиль] [ЛС]
    Показать сообщения:    
    Ответить на тему

    Текущее время: Сегодня, в 22:50

    Часовой пояс: GMT + 2



    Вы не можете начинать темы
    Вы не можете отвечать на сообщения
    Вы не можете редактировать свои сообщения
    Вы не можете удалять свои сообщения
    Вы не можете голосовать в опросах
    Вы не можете прикреплять файлы к сообщениям
    Вы не можете скачивать файлы