BitTorrentTracker PerecTracker.org
BitTorrentTracker PerecTracker.org
    
Регистрация  ·  Вход
 
 · 
Забыли пароль?

  • Аддеролловые дневники / The Adderall Diaries (Памела Романовски / Pamela Romanowsky) [2015, США, триллер, драма, криминал, BDRip 720p] 2x Sub (Rus, Eng) + Original Eng

    Ответить на тему
     
    Автор Сообщение

    Light

    Создавать темы 17-Июл-2016 22:44

           

    [Цитировать]

    Аддеролловые дневники
    The Adderall Diaries

    Страна: США
    Жанр: триллер, драма, криминал
    Год выпуска: 2015
    Продолжительность: 01:27:00
    Перевод: Субтитры Vova Ramone
    Cубтитры: русские, английские
    Оригинальная аудиодорожка: английский
    -
    Режиссер: Памела Романовски / Pamela Romanowsky
    В ролях: Эмбер Хёрд, Джеймс Франко, Кристиан Слэйтер, Уилмер Вальдеррама, Эд Харрис, Синтия Никсон, Джим Пэррак, Дэн Флаэрти, Майкл Кристофер, Тимоти Чаламет
    -
    Описание: Странное судебное разбирательство по делу об убийстве самое малое, что случилось с загнанным в угол прошлым успехом, застоем, злоупотреблением алкоголем, проблемами во взаимоотношениях и комплексом отца писателем Стивеном Эллиотом.

    Тип релиза: BDRip 720p
    Контейнер: MKV
    Видео: H.264 / NTSC 16:9 / 1280x536 (2,40:1) / 6568 kbps / 23,976 fps / 0.399 bit/pixel / High@L4.1
    Аудио: English / Dolby Digital Audio / 5.1 Ch / 48 kHz / 640 kbps / 16 bit / Original
    Формат субтитров: softsub (SRT)
    Навигация по главам: есть

    Фрагмент субтитров

    510
    00:34:18,573 --> 00:34:19,606
    Да, я помню.
    511
    00:34:23,177 --> 00:34:25,512
    Ты дал это мне на следующий
    день после моего передоза.
    512
    00:34:25,514 --> 00:34:28,481
    Ты сказал, что это защитит меня,
    помнишь?
    513
    00:34:28,483 --> 00:34:29,749
    Боюсь, что нет.
    514
    00:34:31,652 --> 00:34:32,919
    Это много значило для меня. Тогда.
    515
    00:34:32,921 --> 00:34:35,455
    Да? Весьма интересно.
    516
    00:34:35,457 --> 00:34:37,657
    Потому что, я не давал
    тебе этого, Стивен.
    517
    00:34:37,659 --> 00:34:38,692
    - Что?
    - Оно было украдено
    518
    00:34:38,694 --> 00:34:40,927
    из моего пиджака, на вечеринке.
    519
    00:34:40,929 --> 00:34:42,996
    Что ты несёшь?
    Я был в больнице Нортвестерна.
    520
    00:34:42,998 --> 00:34:44,331
    Ты тогда ещё тайком навещал меня.
    521
    00:34:44,333 --> 00:34:47,801
    А, не важно. Забудь.
    522
    00:34:47,803 --> 00:34:49,436
    Для меня важно.
    523
    00:34:53,974 --> 00:34:55,442
    Слушай, ты был зол на меня,
    524
    00:34:55,444 --> 00:34:56,810
    т.к. я неудачно пошутил
    на счёт твоей мамы,
    525
    00:34:56,812 --> 00:34:58,978
    когда она описалась
    в инвалидном кресле, так?

    MediaInfo

    Общее
    Уникальный идентификатор                 : 186676116206883449381066410025480190929 (0x8C70832039C6075D93AB6FCE93B97BD1)
    Полное имя                               : D:\The Adderall Diaries.2015.BDRip.720p.mkv
    Формат                                   : Matroska
    Версия формата                           : Version 4 / Version 2
    Размер файла                             : 4,38 Гбайт
    Продолжительность                        : 1 ч. 27 м.
    Общий поток                              : 7210 Кбит/сек
    Название фильма                          : Release for RuTracker © flaSI-I
    Дата кодирования                         : UTC 2016-07-16 18:12:00
    Программа кодирования                    : mkvmerge v9.3.1 ('Mask Machine') 64bit
    Библиотека кодирования                   : libebml v1.3.4 + libmatroska v1.4.5
    Видео
    Идентификатор                            : 1
    Формат                                   : AVC
    Формат/Информация                        : Advanced Video Codec
    Профиль формата                          : High@L4.1
    Параметр CABAC формата                   : Да
    Параметр ReFrames формата                : 12 кадров
    Идентификатор кодека                     : V_MPEG4/ISO/AVC
    Продолжительность                        : 1 ч. 27 м.
    Битрейт                                  : 6568 Кбит/сек
    Ширина                                   : 1280 пикселей
    Высота                                   : 536 пикселей
    Соотношение сторон                       : 2,40:1
    Режим частоты кадров                     : Постоянный
    Частота кадров                           : 23,976 (24000/1001) кадра/сек
    Цветовое пространство                    : YUV
    Субдискретизация насыщенности            : 4:2:0
    Битовая глубина                          : 8 бит
    Тип развёртки                            : Прогрессивная
    Бит/(Пиксели*Кадры)                      : 0.399
    Размер потока                            : 3,99 Гбайт (91%)
    Библиотека кодирования                   : x264 core 146 r2538 121396c
    Настройки программы                      : cabac=1 / ref=12 / deblock=1:-3:-3 / analyse=0x3:0x133 / me=umh / subme=10 / psy=1 / psy_rd=1.00:0.00 / mixed_ref=1 / me_range=32 / chroma_me=1 / trellis=2 / 8x8dct=1 / cqm=0 / deadzone=21,11 / fast_pskip=0 / chroma_qp_offset=-2 / threads=6 / lookahead_threads=1 / sliced_threads=0 / nr=0 / decimate=0 / interlaced=0 / bluray_compat=0 / constrained_intra=0 / bframes=8 / b_pyramid=2 / b_adapt=2 / b_bias=0 / direct=3 / weightb=1 / open_gop=0 / weightp=2 / keyint=250 / keyint_min=24 / scenecut=40 / intra_refresh=0 / rc=crf / mbtree=0 / crf=16.3 / qcomp=0.60 / qpmin=0 / qpmax=69 / qpstep=4 / ip_ratio=1.40 / pb_ratio=1.30 / aq=3:0.80
    Язык                                     : English
    Default                                  : Да
    Forced                                   : Нет
    Аудио
    Идентификатор                            : 2
    Формат                                   : AC-3
    Формат/Информация                        : Audio Coding 3
    Расширение режима                        : CM (complete main)
    Параметр Endianness формата              : Big
    Идентификатор кодека                     : A_AC3
    Продолжительность                        : 1 ч. 27 м.
    Вид битрейта                             : Постоянный
    Битрейт                                  : 640 Кбит/сек
    Каналы                                   : 6 каналов
    Расположение каналов                     : Front: L C R, Side: L R, LFE
    Частота                                  : 48,0 КГц
    Частота кадров                           : 31,250 кадров/сек (1536 spf)
    Метод сжатия                             : С потерями
    Размер потока                            : 398 Мбайт (9%)
    Язык                                     : English
    Default                                  : Да
    Forced                                   : Нет
    Текст #1
    Идентификатор                            : 3
    Формат                                   : UTF-8
    Идентификатор кодека                     : S_TEXT/UTF8
    Идентификатор кодека/Информация          : UTF-8 Plain Text
    Продолжительность                        : 1 ч. 19 м.
    Битрейт                                  : 120 бит/сек
    Count of elements                        : 1201
    Размер потока                            : 70,2 Кбайт (0%)
    Заголовок                                : Vova Ramone
    Язык                                     : Russian
    Default                                  : Да
    Forced                                   : Нет
    Текст #2
    Идентификатор                            : 4
    Формат                                   : UTF-8
    Идентификатор кодека                     : S_TEXT/UTF8
    Идентификатор кодека/Информация          : UTF-8 Plain Text
    Продолжительность                        : 1 ч. 19 м.
    Битрейт                                  : 63 бит/сек
    Count of elements                        : 1046
    Размер потока                            : 36,9 Кбайт (0%)
    Заголовок                                : Original
    Язык                                     : English
    Default                                  : Нет
    Forced                                   : Нет
    Меню
    00:00:00.000                             : en:00:00:00.000
    00:03:38.093                             : en:00:03:38.093
    00:10:39.848                             : en:00:10:39.848
    00:16:22.607                             : en:00:16:22.607
    00:20:18.676                             : en:00:20:18.676
    00:28:44.514                             : en:00:28:44.514
    00:33:07.068                             : en:00:33:07.068
    00:38:40.443                             : en:00:38:40.443
    00:43:29.273                             : en:00:43:29.273
    00:51:16.990                             : en:00:51:16.990
    00:54:33.979                             : en:00:54:33.979
    00:59:51.588                             : en:00:59:51.588
    01:06:14.595                             : en:01:06:14.595
    01:11:39.086                             : en:01:11:39.086
    01:16:01.724                             : en:01:16:01.724
    01:19:02.780                             : en:01:19:02.780

    Скриншоты

    Скачать .torrent

    Скачать торрент-файл бесплатно и на максимальной скорости!

    Как скачивать? · Что такое торрент? · Рейтинг и ограничения

    !ВНИМАНИЕ!
    Сайт не распространяет и не хранит электронные версии произведений, а занимается лишь лишь предоставлением доступа к создаваемому пользователями каталогу ссылок на торрент-файлы, которые содержат только списки хеш-сумм, убедительная просьба с жалобами обращаться напрямую к пользователю. Файлы для обмена на трекере предоставлены пользователями сайта, и администрация не несёт ответственности за их содержание. Просьба не заливать файлы, защищенные авторскими правами, а также файлы нелегального содержания!


    _________________
    [Профиль] [ЛС]
    Показать сообщения:    
    Ответить на тему

    Текущее время: Сегодня, в 22:09

    Часовой пояс: GMT + 2



    Вы не можете начинать темы
    Вы не можете отвечать на сообщения
    Вы не можете редактировать свои сообщения
    Вы не можете удалять свои сообщения
    Вы не можете голосовать в опросах
    Вы не можете прикреплять файлы к сообщениям
    Вы не можете скачивать файлы