BitTorrentTracker PerecTracker.org
BitTorrentTracker PerecTracker.org
    
Регистрация  ·  Вход
 
 · 
Забыли пароль?

  • Война пуговиц / La guerre des boutons (Ян Самюэль / Yann Samuell) [2011, Франция, семейный, приключения, HDTV 1080i] MVO (Позитив)

    Ответить на тему
     
    Автор Сообщение

    Light

    Создавать темы 17-Июл-2016 22:44

           

    [Цитировать]

    Война пуговиц / La guerre des boutons-Страна: Франция
    Студия: One World Films, TF1 Droits Audiovisuels, TF1 Films Production
    Жанр: семейный, приключения
    Год выпуска: 2011
    Продолжительность: 01:44:24-Перевод: Профессиональный (многоголосый закадровый) - "Позитив"
    Cубтитры: нет
    Оригинальная аудиодорожка: нет-Режиссер: Ян Самюэль / Yann Samuell
    В ролях: Эрик Элмоснино, Матильда Сенье, Фред Тесто, Ален Шаба, Венсан Брес, Салом Лемир, Тео Бертран, Тристан Вишар, Том Террель, Луи Лефебвр...- | Релиз: -Описание: Юг Франции, 1957 год. Компания мальчишек во главе с бесстрашным Лебраком всегда готова бросить вызов своим заклятым врагам - мальчишкам из соседней деревни. Ведь в извечном противостоянии детворы соседних деревень уже на протяжении нескольких поколений победитель так и не определен. Но ради победы ребята готовы на всё: сражаться в необычном виде, чтобы смутить и обратить соперников в бегство, и даже пригласить в свой стан для подмоги отчаянную девчонку. Ведь благодаря её нраву и изобретательности может быть наконец-то удастся одержать вверх над соперником.
    По книге "Война пуговиц" (1912 г.) французского писателя Луи Перго.-Семпл: http://sendfile.su/1250712-Тип релиза: HDTV 1080i
    Контейнер: TS
    Видео: 1920x1080 (16:9), 25.000 fps, AVC, ~7444 Kbps, 0.144 bits/pixel
    Аудио: Русский, 48.0 KHz, AC3, 2 ch, 384 Kbps

    MediaInfo

    GeneralID : 1 (0x1)Complete name : La guerre des boutons 2011 HD-Kino MVO Positiv.tsFormat : MPEG-TSFile size : 6.01 GiBDuration : 1 h 44 minOverall bit rate mode : VariableOverall bit rate : 8 239 kb/sMaximum Overall bit rate : 35.5 Mb/s
    VideoID : 4113 (0x1011)Menu ID : 1 (0x1)Format : AVCFormat/Info : Advanced Video CodecFormat profile : High@L4Format settings, CABAC : YesFormat settings, ReFrames : 4 framesFormat settings, GOP : M=4, N=28Codec ID : 27Duration : 1 h 44 minBit rate : 7 444 kb/sWidth : 1 920 pixelsHeight : 1 080 pixelsDisplay aspect ratio : 16:9Frame rate : 25.000 FPSStandard : ComponentColor space : YUVChroma subsampling : 4:2:0Bit depth : 8 bitsScan type : InterlacedScan type, store method : Separated fieldsScan order : Top Field FirstBits/(Pixel*Frame) : 0.144Stream size : 5.43 GiB (90%)Color range : LimitedColor primaries : BT.709Transfer characteristics : BT.709Matrix coefficients : BT.709
    AudioID : 4352 (0x1100)Menu ID : 1 (0x1)Format : AC-3Format/Info : Audio Coding 3Mode extension : CM (complete main)Format settings, Endianness : BigCodec ID : 129Duration : 1 h 44 minBit rate mode : ConstantBit rate : 384 kb/sChannel(s) : 2 channelsChannel positions : Front: L RSampling rate : 48.0 kHzFrame rate : 31.250 FPS (1536 spf)Compression mode : LossyStream size : 287 MiB (5%)Language : Russian

    Скриншоты

    Скачать .torrent

    Скачать торрент-файл бесплатно и на максимальной скорости!

    Как скачивать? · Что такое торрент? · Рейтинг и ограничения

    !ВНИМАНИЕ!
    Сайт не распространяет и не хранит электронные версии произведений, а занимается лишь лишь предоставлением доступа к создаваемому пользователями каталогу ссылок на торрент-файлы, которые содержат только списки хеш-сумм, убедительная просьба с жалобами обращаться напрямую к пользователю. Файлы для обмена на трекере предоставлены пользователями сайта, и администрация не несёт ответственности за их содержание. Просьба не заливать файлы, защищенные авторскими правами, а также файлы нелегального содержания!


    _________________
    [Профиль] [ЛС]
    Показать сообщения:    
    Ответить на тему

    Текущее время: Сегодня, в 03:09

    Часовой пояс: GMT + 2



    Вы не можете начинать темы
    Вы не можете отвечать на сообщения
    Вы не можете редактировать свои сообщения
    Вы не можете удалять свои сообщения
    Вы не можете голосовать в опросах
    Вы не можете прикреплять файлы к сообщениям
    Вы не можете скачивать файлы