BitTorrentTracker PerecTracker.org
BitTorrentTracker PerecTracker.org
    
Регистрация  ·  Вход
 
 · 
Забыли пароль?

  • Метод Лавровой / 1-40 серии из 40 (Владислав Николаев, Андрей Ушатинский) [2011 г., иронический детектив, IPTVRip]

    Ответить на тему
     
    Автор Сообщение

    rechyn

    Создавать темы 17-Июл-2016 20:28

           

    [Цитировать]

    Метод Лавровой / 1-40 серии из 40
    Год выпуска: 2011
    Производство: Россия, Леан-М
    Жанр: иронический детектив
    Продолжительность: 40 серий по ~ 45-47 минут
    Субтитры: нет
    Режиссёры: Владислав Николаев, Андрей Ушатинский
    В ролях: Юрий Батурин, Дмитрий Блохин, Светлана Ходченкова, Артем Григорьев, Сергей Беляев, Павел Прилучный, Елена Валюшкина, Максим Виноградов, Наталья Тищенко, Борис Невзоров, Елена Коллегова
    Описание: Катя Лаврова — красивая дочка высокопоставленного начальника МВД, отличница с красным дипломом и лучший опер Управления. Она обладает мужской логикой, острым умом и отточенным чувством юмора. Еще недавно ее ждала прекрасная карьера, но неожиданно она ушла из отдела. Причину никому не объяснила. С тех пор работает внештатным консультантом криминальной полиции и помогает в раскрытии самых загадочных преступлений.
    Отыскать царские драгоценности раньше привидения, найти маньяка среди первокурсников, предотвратить сделку арт-контрабандистов на десять миллионов долларов, — с помощью обычных методов такие преступления раскрыть невозможно. Лаврова использует психологию, нелинейную логику и группу из 7 студентов Университета МВД, которые помогают ей.
    Все раздачи сериала
    Качество: IPTVRip
    Формат: AVI
    Видео кодек: XviD
    Аудио кодек: MP3
    Видео: 720x400 (1.80:1), 25 fps, XviD MPEG-4 ~1365 kbps avg, 0.19 bit/pixel
    Аудио: 48 kHz, MPEG Layer 3, 2 ch, ~128.00 kbps avg

    MI

    Общее
    Полное имя : G:\Metod.Lavrovoy.2011.XviD.IPTVRip.by.Shel\Metod.Lavrovoy.(01).2011.XviD.IPTVRip.by.Shel.avi
    Формат : AVI
    Формат/Информация : Audio Video Interleave
    Размер файла : 483 Мбайт
    Продолжительность : 44 м.
    Общий поток : 1503 Кбит/сек
    Программа кодирования : VirtualDubMod 1.5.10.2 (build 2540/release)
    Библиотека кодирования : VirtualDub build 32706/release
    Видео
    Идентификатор : 0
    Формат : MPEG-4 Visual
    Профиль формата : Advanced Simple@L5
    Параметр BVOP формата : 2
    Параметр QPel формата : Нет
    Параметр GMC формата : Без точки перехода
    Параметр матрицы формата : Default (H.263)
    Режим смешивания : Сжатый битовый поток
    Идентификатор кодека : XVID
    Идентификатор кодека/Подсказка : XviD
    Продолжительность : 44 м.
    Битрейт : 1365 Кбит/сек
    Ширина : 720 пикс.
    Высота : 400 пикс.
    Соотношение сторон : 16:9
    Частота кадров : 25,000 кадр/сек
    Цветовое пространство : YUV
    Подвыборка цветности : 4:2:0
    Битовая глубина : 8 бит
    Тип развёртки : Прогрессивная
    Метод сжатия : С потерями
    Бит/(Пиксели*Кадры) : 0.190
    Размер потока : 438 Мбайт (91%)
    Библиотека кодирования : XviD 1.2.1 (UTC 2008-12-04)
    Аудио
    Идентификатор : 1
    Формат : MPEG Audio
    Версия формата : Version 1
    Профиль формата : Layer 3
    Режим : Joint stereo
    Расширение режима : MS Stereo
    Идентификатор кодека : 55
    Идентификатор кодека/Подсказка : MP3
    Продолжительность : 44 м.
    Вид битрейта : Постоянный
    Битрейт : 128 Кбит/сек
    Канал(ы) : 2 канала(ов)
    Частота : 48,0 КГц
    Метод сжатия : С потерями
    Размер потока : 41,1 Мбайт (9%)
    Выравнивание : Соединение по промежуткам
    Продолжительность промежутка : 40 мс. (1,00 видеокадр)
    Время предзагрузки промежутка : 504 ms

    Скриншоты

    Скачать .torrent

    Скачать торрент-файл бесплатно и на максимальной скорости!

    Как скачивать? · Что такое торрент? · Рейтинг и ограничения

    !ВНИМАНИЕ!
    Сайт не распространяет и не хранит электронные версии произведений, а занимается лишь лишь предоставлением доступа к создаваемому пользователями каталогу ссылок на торрент-файлы, которые содержат только списки хеш-сумм, убедительная просьба с жалобами обращаться напрямую к пользователю. Файлы для обмена на трекере предоставлены пользователями сайта, и администрация не несёт ответственности за их содержание. Просьба не заливать файлы, защищенные авторскими правами, а также файлы нелегального содержания!


    _________________
    [Профиль] [ЛС]
    Показать сообщения:    
    Ответить на тему

    Текущее время: Сегодня, в 02:12

    Часовой пояс: GMT + 2



    Вы не можете начинать темы
    Вы не можете отвечать на сообщения
    Вы не можете редактировать свои сообщения
    Вы не можете удалять свои сообщения
    Вы не можете голосовать в опросах
    Вы не можете прикреплять файлы к сообщениям
    Вы не можете скачивать файлы