BitTorrentTracker PerecTracker.org
BitTorrentTracker PerecTracker.org
    
Регистрация  ·  Вход
 
 · 
Забыли пароль?

  • Метод Лавровой / Сезон: 2 / Серии: 1-20 из 20 (Валерия Ивановская) [2012, детектив, драма, мелодрама, SATRip]

    Ответить на тему
     
    Автор Сообщение

    rechyn

    Создавать темы 17-Июл-2016 20:23

           

    [Цитировать]

    Метод Лавровой 2
    Год выпуска: 2012
    Производство: ПЦ "Леан-М" по заказу телекана СТС
    Жанр: детектив, драма, мелодрама
    Продолжительность: 00:47:00
    Субтитры: нет
    Режиссёр: Валерия Ивановская
    В ролях: Светлана Ходченкова, Дмитрий Блохин, Павел Прилучный, Артем Григорьев, Сергей Климов, Ярослав Жалнин, Дарья Иванова, Григорий Иванец, Ольга Дибцева, Максим Виноградов, Ольга Хохлова, Александр Соколовский, Юрий Батурин, Михаил Хмуров, Татьяна Лютаева
    Описание: Екатерина Лаврова оставляет службу в МВД и начинает преподавать криминалистику в Академии МВД, одновременно помогая в качестве внештатного консультанта вместе со своими студентами в расследовании самых загадочных преступлений полиции. Лавровой и ее курсантам предстоит расследовать череду загадочных убийств участников археологической экспедиции, поломать голову над чертовщиной, происходящей в одной из деревень, распутать дело, в котором замешаны оборотни, и спасти от приговора курсанта, обвиняемого в жестоком убийстве...
    Доп. информация: реклама отсутствует
    Все раздачи сериала:
    Метод Лавровой

    Качество: SATRip
    Формат: AVI
    Видео кодек: XviD
    Аудио кодек: AC3
    Видео: MPEG-4 Visual, ~1500 Кбит/сек, 720х400, 25 кадр/с, 0,213 bit/pixel
    Аудио: АС3, 48 kHz, 2 ch, 192 Кбит/с

    MI

    Общее
    Полное имя                               : C:\otkat\Видео\Metod.Lavrovoy 2.avi
    Формат                                   : AVI
    Формат/Информация                        : Audio Video Interleave
    Размер файла                             : 602 Мбайт
    Продолжительность                        : 48 м.
    Общий поток                              : 1733 Кбит/сек
    Программа кодирования                    : VirtualDubMod 1.5.10.3 | www.virtualdub-fr.org || (build 2550/release)
    Библиотека кодирования                   : VirtualDubMod build 2550/release
    Видео
    Идентификатор                            : 0
    Формат                                   : MPEG-4 Visual
    Профиль формата                          : Advanced Simple@L5
    Параметр BVOP формата                    : 2
    Параметр QPel формата                    : Нет
    Параметр GMC формата                     : Без точки перехода
    Параметр матрицы формата                 : Default (MPEG)
    Идентификатор кодека                     : XVID
    Идентификатор кодека/Подсказка           : XviD
    Продолжительность                        : 48 м.
    Битрейт                                  : 1532 Кбит/сек
    Ширина                                   : 720 пикселей
    Высота                                   : 400 пикселей
    Соотношение сторон                       : 16:9
    Частота кадров                           : 25,000 кадров/сек
    Цветовое пространство                    : YUV
    Субдискретизация насыщенности            : 4:2:0
    Битовая глубина                          : 8 бит
    Тип развёртки                            : Прогрессивная
    Метод сжатия                             : С потерями
    Бит/(Пиксели*Кадры)                      : 0.213
    Размер потока                            : 532 Мбайт (88%)
    Библиотека кодирования                   : XviD 65
    Аудио
    Идентификатор                            : 1
    Формат                                   : AC-3
    Формат/Информация                        : Audio Coding 3
    Расширение режима                        : CM (complete main)
    Параметр Endianness формата              : Big
    Идентификатор кодека                     : 2000
    Продолжительность                        : 48 м.
    Вид битрейта                             : Постоянный
    Битрейт                                  : 192 Кбит/сек
    Каналы                                   : 2 канала
    Расположение каналов                     : Front: L R
    Частота                                  : 48,0 КГц
    Частота кадров                           : 31,250 кадров/сек (1536 spf)
    Метод сжатия                             : С потерями
    Размер потока                            : 66,6 Мбайт (11%)
    Выравнивание                             : Разделение по промежуткам
    Продолжительность промежутка             : 40  мс. (1,00 видеокадр)
    Время предзагрузки промежутка            : 500  мс.

    Скриншоты

    Скачать .torrent

    Скачать торрент-файл бесплатно и на максимальной скорости!

    Как скачивать? · Что такое торрент? · Рейтинг и ограничения

    !ВНИМАНИЕ!
    Сайт не распространяет и не хранит электронные версии произведений, а занимается лишь лишь предоставлением доступа к создаваемому пользователями каталогу ссылок на торрент-файлы, которые содержат только списки хеш-сумм, убедительная просьба с жалобами обращаться напрямую к пользователю. Файлы для обмена на трекере предоставлены пользователями сайта, и администрация не несёт ответственности за их содержание. Просьба не заливать файлы, защищенные авторскими правами, а также файлы нелегального содержания!


    _________________
    [Профиль] [ЛС]
    Показать сообщения:    
    Ответить на тему

    Текущее время: Сегодня, в 04:59

    Часовой пояс: GMT + 2



    Вы не можете начинать темы
    Вы не можете отвечать на сообщения
    Вы не можете редактировать свои сообщения
    Вы не можете удалять свои сообщения
    Вы не можете голосовать в опросах
    Вы не можете прикреплять файлы к сообщениям
    Вы не можете скачивать файлы