BitTorrentTracker PerecTracker.org
BitTorrentTracker PerecTracker.org
    
Регистрация  ·  Вход
 
 · 
Забыли пароль?

  • Алис Невер. Женщина-следователь / Alice Nevers, le juge est une femme / Сезон 1, 2, 3 (Рене Манзор / Rene Manzor) [2002-2004 г., драма, детектив, DVB]

    Ответить на тему
     
    Автор Сообщение

    rechyn

    Создавать темы 17-Июл-2016 20:14

           

    [Цитировать]

    -Алис Невер. Женщина-следователь / Alice Nevers, le juge est une femme
    Сезон 1 Серии 01-03 из 03
    Сезон 2 Серии 01-03 из 03
    Сезон 3 Серии 01-02 из 02
    -Страна:
    Жанр: Драма, детектив.
    Продолжительность: ~01:30:00
    Год выпуска: 2002-2004
    Перевод: Профессиональный (многоголосый закадровый).
    Субтитры: нет.
    Режиссёр: Рене Манзор / René Manzor.
    В ролях: Марин Дельтерм, Жан-Мишель Тинивелли, Даниэль-Жан Коллоредо, Жан Делл, Гийом Карко, Ноам Моргенштерн, Ахмед Силла, Александр Варга, Флоранс Пернель, Пьер Сантини.--Описание: Алиса Невер устраивается на работу в прокуратуру. В напарники ей дают лейтенанта Форента. Вместе они расследуют самые запутанные дела, и самые сложные загадки. Невер и Форент прекрасно дополняют друг друга поэтому нет дела, которое они не смогли бы раскрыть.--Доп. информация:
    Список серий брался с французской Википедии;
    телеканал транслировал сериал без начальной заставки.----Релиз:--Качество видео: DVB
    Формат видео: MPEG-PS
    Видео: MPEG2 Video, 704x576, 25 fps, 3 557 kbps
    Аудио: MPEG Audio, 2 сh, 48 kHz, 192 kbps

    Список серий

    Сезон 1
    01. Подавление воли (Soumission)
    02. Следователь против следователя (Juge contre juge)
    03. Джекпот. (Jackpot)
    Сезон 2
    01. Смерть в спортивном зале (Mort en salle)
    02. Смерть манекенщицы (Mort d'une fille modèle)
    03. Профессиональный риск (Les Risques du métier)
    Сезон 3
    01. Плутишка (Ficelle)
    02. Последняя звезда (La Dernière Étoile)

    MInfo

    General
    Complete name : G:\Алис Невер Сезон\Алис Невер Серия 01 Soumission.mpg
    Format : MPEG-PS
    File size : 2.43 GiB
    Duration : 1h 30mn
    Overall bit rate mode : Variable
    Overall bit rate : 3 825 Kbps
    Video
    ID : 224 (0xE0)
    Format : MPEG Video
    Format version : Version 2
    Format profile : Main@Main
    Format settings, BVOP : Yes
    Format settings, Matrix : Custom
    Format settings, GOP : Variable
    Format settings, picture st : Frame
    Duration : 1h 30mn
    Bit rate mode : Variable
    Bit rate : 3 557 Kbps
    Maximum bit rate : 15.0 Mbps
    Width : 704 pixels
    Height : 576 pixels
    Display aspect ratio : 4:3
    Frame rate : 25.000 fps
    Standard : PAL
    Color space : YUV
    Chroma subsampling : 4:2:0
    Bit depth : 8 bits
    Scan type : Interlaced
    Scan order : Top Field First
    Compression mode : Lossy
    Bits/(Pixel*Frame) : 0.351
    Time code of first frame : 00:00:00:00
    Time code source : Group of pictures header
    GOP, Open/Closed : Open
    GOP, Open/Closed of first f : Closed
    Stream size : 2.26 GiB (93%)
    Audio
    ID : 192 (0xC0)
    Format : MPEG Audio
    Format version : Version 1
    Format profile : Layer 2
    Duration : 1h 30mn
    Bit rate mode : Constant
    Bit rate : 192 Kbps
    Channel(s) : 2 channels
    Sampling rate : 48.0 KHz
    Compression mode : Lossy
    Delay relative to video : 4ms
    Stream size : 125 MiB (5%)

    Скриншоты



    -
    Скачать .torrent

    Скачать торрент-файл бесплатно и на максимальной скорости!

    Как скачивать? · Что такое торрент? · Рейтинг и ограничения

    !ВНИМАНИЕ!
    Сайт не распространяет и не хранит электронные версии произведений, а занимается лишь лишь предоставлением доступа к создаваемому пользователями каталогу ссылок на торрент-файлы, которые содержат только списки хеш-сумм, убедительная просьба с жалобами обращаться напрямую к пользователю. Файлы для обмена на трекере предоставлены пользователями сайта, и администрация не несёт ответственности за их содержание. Просьба не заливать файлы, защищенные авторскими правами, а также файлы нелегального содержания!


    _________________
    [Профиль] [ЛС]
    Показать сообщения:    
    Ответить на тему

    Текущее время: Сегодня, в 08:09

    Часовой пояс: GMT + 2



    Вы не можете начинать темы
    Вы не можете отвечать на сообщения
    Вы не можете редактировать свои сообщения
    Вы не можете удалять свои сообщения
    Вы не можете голосовать в опросах
    Вы не можете прикреплять файлы к сообщениям
    Вы не можете скачивать файлы