Register  ·  Log in
Forgot password?

  • Алис Невер. Женщина-следователь / Alice Nevers, le juge est une femme / Сезон 1, 2, 3 (Рене Манзор / Rene Manzor) [2002-2004 г., драма, детектив, DVB]

    Reply to topic
    Author Message


    Post 17-Jul-2016 21:14



    -Алис Невер. Женщина-следователь / Alice Nevers, le juge est une femme
    Сезон 1 Серии 01-03 из 03
    Сезон 2 Серии 01-03 из 03
    Сезон 3 Серии 01-02 из 02
    Жанр: Драма, детектив.
    Продолжительность: ~01:30:00
    Год выпуска: 2002-2004
    Перевод: Профессиональный (многоголосый закадровый).
    Субтитры: нет.
    Режиссёр: Рене Манзор / René Manzor.
    В ролях: Марин Дельтерм, Жан-Мишель Тинивелли, Даниэль-Жан Коллоредо, Жан Делл, Гийом Карко, Ноам Моргенштерн, Ахмед Силла, Александр Варга, Флоранс Пернель, Пьер Сантини.--Описание: Алиса Невер устраивается на работу в прокуратуру. В напарники ей дают лейтенанта Форента. Вместе они расследуют самые запутанные дела, и самые сложные загадки. Невер и Форент прекрасно дополняют друг друга поэтому нет дела, которое они не смогли бы раскрыть.--Доп. информация:
    Список серий брался с французской Википедии;
    телеканал транслировал сериал без начальной заставки.----Релиз:--Качество видео: DVB
    Формат видео: MPEG-PS
    Видео: MPEG2 Video, 704x576, 25 fps, 3 557 kbps
    Аудио: MPEG Audio, 2 сh, 48 kHz, 192 kbps

    Список серий

    Сезон 1
    01. Подавление воли (Soumission)
    02. Следователь против следователя (Juge contre juge)
    03. Джекпот. (Jackpot)
    Сезон 2
    01. Смерть в спортивном зале (Mort en salle)
    02. Смерть манекенщицы (Mort d'une fille modèle)
    03. Профессиональный риск (Les Risques du métier)
    Сезон 3
    01. Плутишка (Ficelle)
    02. Последняя звезда (La Dernière Étoile)


    Complete name : G:\Алис Невер Сезон\Алис Невер Серия 01 Soumission.mpg
    Format : MPEG-PS
    File size : 2.43 GiB
    Duration : 1h 30mn
    Overall bit rate mode : Variable
    Overall bit rate : 3 825 Kbps
    ID : 224 (0xE0)
    Format : MPEG Video
    Format version : Version 2
    Format profile : Main@Main
    Format settings, BVOP : Yes
    Format settings, Matrix : Custom
    Format settings, GOP : Variable
    Format settings, picture st : Frame
    Duration : 1h 30mn
    Bit rate mode : Variable
    Bit rate : 3 557 Kbps
    Maximum bit rate : 15.0 Mbps
    Width : 704 pixels
    Height : 576 pixels
    Display aspect ratio : 4:3
    Frame rate : 25.000 fps
    Standard : PAL
    Color space : YUV
    Chroma subsampling : 4:2:0
    Bit depth : 8 bits
    Scan type : Interlaced
    Scan order : Top Field First
    Compression mode : Lossy
    Bits/(Pixel*Frame) : 0.351
    Time code of first frame : 00:00:00:00
    Time code source : Group of pictures header
    GOP, Open/Closed : Open
    GOP, Open/Closed of first f : Closed
    Stream size : 2.26 GiB (93%)
    ID : 192 (0xC0)
    Format : MPEG Audio
    Format version : Version 1
    Format profile : Layer 2
    Duration : 1h 30mn
    Bit rate mode : Constant
    Bit rate : 192 Kbps
    Channel(s) : 2 channels
    Sampling rate : 48.0 KHz
    Compression mode : Lossy
    Delay relative to video : 4ms
    Stream size : 125 MiB (5%)


    Download .torrent

    Download free and at maximum speed!

    How to Download? · What is a torrent? · Ratings and Limitations

    The site does not extend and does not store electronic(digital) versions of products, and only gives access to a reference catalogue created by users on torrent-files which contain only lists of the hash-sums, the earnest entreaty, with complaints(abuse) to access directly to the user. Files for an exchange on tracker are given by users of a site, and the administration does not bear the responsibility for their maintenance. The request to not fill in the files protected by copyrights, and also files of the illegal maintenance!

    [Profile] [PM]
    Display posts from previous:    
    Reply to topic

    The time now is: Today 00:49

    All times are GMT + 3 Hours

    You cannot post new topics in this forum
    You cannot reply to topics in this forum
    You cannot edit your posts in this forum
    You cannot delete your posts in this forum
    You cannot vote in polls in this forum
    You cannot attach files in this forum
    You cannot download files in this forum