BitTorrentTracker PerecTracker.org
BitTorrentTracker PerecTracker.org
    
Регистрация  ·  Вход
 
 · 
Забыли пароль?

  • Высокая кухня / Серии: 1-4 из 4 (Владислав Николаев) [2014, мелодрама, DVB]

    Ответить на тему
     
    Автор Сообщение

    Columb

    Создавать темы 16-Мар-2014 12:29

           

    [Цитировать]

    Высокая кухня
    Год выпуска: 2014
    Производство: © ООО "Доминика"
    Жанр: мелодрама
    Продолжительность: 00:44:00
    Субтитры: Нет
    Режиссёр: Владислав Николаев
    В ролях: Анна Пескова, Михаил Мамаев, Александр Галибин, Михаил Горевой, Сергей Друзьяк, Сергей Габриэлян, Александр Орлов (IV), Дмитрий Блохин, Дмитрий Козельский, Яна Крайнова, Анна Халилулина, Юлия Гришина, Алиса Кильбург, Юлия Абрамова, Павел Архипов, Владимир Терещенко, Георгий Славский, Валерий Харченко
    Описание: Действие происходит в крупном российском городе, в наши дни. По сюжету главная героиня сериала Высокая кухня – Маша, дочь владельца ресторана Андреева. Мама Маши погибла, когда девочке было всего 10 лет.Отец Маши приводит в дом другую женщину, но их отношения с девушкой не ладятся.В результате после одного из семейных конфликтов Маша уходит из дома и оказывается в ночном клубе, где ее ожидают опасные неожиданности...-Доп. информация: Реклама отсутствует!-Сэмпл: http://f-bit.ru/389219
    Качество: DVB
    Формат: MPEG
    Видео кодек: MPEG2
    Аудио кодек: MPEG1
    Видео: MPEG2 Video 768х576 @ 720x576 (4:3) 25.00fps ~4465 Kbps (0.431t/pixel)
    Аудио: MPEG Audio 48000Hz 1 channels 192 Кбит/сек

    MI

    Общее
    Полное имя : W:\Video1\Высокая кухня DVB\Высокая кухня 01-02 by simka.mpg
    Формат : MPEG-PS
    Размер файла : 2,95 Гбайт
    Продолжительность : 1 ч. 28 м.
    Режим общего битрейта : Переменный
    Общий поток : 4760 Кбит/сек
    Библиотека кодирования : (c) 1998-2010 Womble Multimedia, Inc. / MPEG Video Wizard DVD 5.0.0.114 (01/2010) / Nov 13 2010
    Видео
    Идентификатор : 224 (0xE0)
    Формат : MPEG Video
    Версия формата : Version 2
    Профиль формата : Main@Main
    Параметр BVOP формата : Да
    Параметр матрицы формата : Выборочная
    Параметр GOP формата : Variable
    Продолжительность : 1 ч. 28 м.
    Вид битрейта : Переменный
    Битрейт : 4473 Кбит/сек
    Максимальный битрейт : 15,0 Мбит/сек
    Ширина : 720 пикселей
    Высота : 576 пикселей
    Соотношение сторон : 4:3
    Частота кадров : 25,000 кадров/сек
    Стандарт вещания : PAL
    Цветовое пространство : YUV
    Субдискретизация насыщенности : 4:2:0
    Битовая глубина : 8 бит
    Тип развёртки : Чересстрочная
    Порядок развёртки : Верхнее поле первое
    Метод сжатия : С потерями
    Бит/(Пиксели*Кадры) : 0.431
    TimeCode_FirstFrame : 00:00:00:00
    TimeCode_Source : Group of pictures header
    Размер потока : 2,77 Гбайт (94%)
    Библиотека кодирования : (c) 1998-2010 Womble Multimedia, Inc. / MPEG Video Wizard DVD 5.0.0.114 (01/2010) / Nov 13 2010
    Аудио
    Идентификатор : 192 (0xC0)
    Формат : MPEG Audio
    Версия формата : Version 1
    Профиль формата : Layer 2
    Продолжительность : 1 ч. 28 м.
    Вид битрейта : Постоянный
    Битрейт : 192 Кбит/сек
    Каналы : 1 канал
    Частота : 48,0 КГц
    Метод сжатия : С потерями
    Размер потока : 122 Мбайт (4%)
    Меню

    Скриншоты

    Скачать .torrent

    Скачать торрент-файл бесплатно и на максимальной скорости!

    Как скачивать? · Что такое торрент? · Рейтинг и ограничения

    !ВНИМАНИЕ!
    Сайт не распространяет и не хранит электронные версии произведений, а занимается лишь лишь предоставлением доступа к создаваемому пользователями каталогу ссылок на торрент-файлы, которые содержат только списки хеш-сумм, убедительная просьба с жалобами обращаться напрямую к пользователю. Файлы для обмена на трекере предоставлены пользователями сайта, и администрация не несёт ответственности за их содержание. Просьба не заливать файлы, защищенные авторскими правами, а также файлы нелегального содержания!

    [Профиль] [ЛС]
    Показать сообщения:    
    Ответить на тему

    Текущее время: Сегодня, в 12:01

    Часовой пояс: GMT + 2



    Вы не можете начинать темы
    Вы не можете отвечать на сообщения
    Вы не можете редактировать свои сообщения
    Вы не можете удалять свои сообщения
    Вы не можете голосовать в опросах
    Вы не можете прикреплять файлы к сообщениям
    Вы не можете скачивать файлы