BitTorrentTracker PerecTracker.org
BitTorrentTracker PerecTracker.org
    
Регистрация  ·  Вход
 
 · 
Забыли пароль?

  • Знакомьтесь: это моя жена / Je vous presente ma femme (Элизабет Раппно / Elisabeth Rappeneau) [2012, Франция, комедия, DVB] Original (Fre) + Sub (Rus, Eng, Fre, Deu)

    Ответить на тему
     
    Автор Сообщение

    Light

    Создавать темы 17-Июл-2016 18:40

           

    [Цитировать]

    Знакомьтесь: это моя жена
    Je vous présente ma femme-Страна:
    Жанр: комедия
    Год выпуска: 2012
    Продолжительность: 01:27:05Перевод: Субтитры (перевод Г.Мирзоевой, Éclair Group)
    Cубтитры: русские, английские, французские, немецкие, нидерландские
    Оригинальная аудиодорожка: французский
    Режиссер: Элизабет Раппно / Élisabeth Rappeneau
    В ролях: Катрин Жакоб / Catherine Jacob (Viviane), Фабио Зенони / Fabio Zenoni (Eric), Айлин Пранди / Aylin Prandi (Revolución), Ноэми Де Латтр / Noémie De Lattre (Nelly), Кристиан Перейра / Christian Pereira (Raymond), Мишель Робен / Michel Robin (Alphonse)
    Описание: Эрик, застенчивый 38-летний мужчина, во время командировки на Кубу встретил красивую и жизнерадостную 23-летнюю женщину с необычным именем Революция. Они поженились и стали жить в квартире Эрика в небольшом спальном предместье Лилля. Скучая долгими днями в одиночестве, пока муж был на работе, экспрессивная Революция решает пойти работать и обучать желающих латиноамериканской сальсе. Однако, в начинающейся семейной жизни она имеет серьезного врага в лице свекрови Вивиан, которая не верит в искренность чувств молодой женщины, а лишь предлог избежать жалкого существования на родине и перебраться в Европу…
    Доп. информация: Hot Bird (13.0°E) TV5MONDE Europe DVB-S. Во время нефранцузской речи на экране дополнительно вшитые французские субтитры.

    Качество видео: DVB
    Формат видео: MKV
    Видео: MPEG Video 2, 720x576@1024x576 (16:9), 25 fps, ~2949 kbps avg, 0.284 bit/pixel
    Аудио: MPEG Audio 2, 2 ch, 48 kHz, 192 kbps - французский
    Формат субтитров: softsub (SRT)

    Пример субтитров

    100:00:20,014 --> 00:00:22,175Особых изменений не ожидается.
    200:00:22,175 --> 00:00:25,175Будет облачно, местамиосадки, максимальная
    300:00:25,725 --> 00:00:28,564температура воздуха8-12 градусов.
    400:00:28,564 --> 00:00:31,564Такая погода продлитсядо конца недели. Затем ожидается
    500:00:32,483 --> 00:00:35,483небольшое потепление.
    600:00:35,725 --> 00:00:37,643На автотрассе А1,
    700:00:37,643 --> 00:00:40,203по направлению к Лиллю, пробки.
    800:00:40,203 --> 00:00:43,203Будьте осторожны...
    900:01:05,205 --> 00:01:08,205ЗНАКОМТЕСЬ: ЭТО МОЯ ЖЕНА
    1000:01:13,002 --> 00:01:16,002Приходи сегодня ужинать.Будем матч смотреть.
    1100:01:16,005 --> 00:01:18,284Отлично.До вечера, мама.
    1200:01:18,284 --> 00:01:21,284До вечера, сынок.
    1300:01:32,246 --> 00:01:35,246Корентен! Ботинки!
    1400:01:35,841 --> 00:01:38,841-Вы опаздываете!-Доброе утро, Вивиана.
    1500:01:39,403 --> 00:01:41,005Как поживаете?
    1600:01:41,005 --> 00:01:42,966Поздоровайтесь с бабушкой.
    1700:01:42,966 --> 00:01:45,966Идите.
    1800:01:46,441 --> 00:01:48,123Доброе утро, мама.
    1900:01:48,123 --> 00:01:51,123Доброе утро.
    2000:01:52,529 --> 00:01:54,525Поехали, Мишель!

    MediaInfo

    GeneralUnique ID : 177748452934895316824235276334401135753 (0x85B91B57BDDFB7CC90E7CEF346692489)Complete name : [apreder]Je_vous_presente_ma_femme(2012)DVB.mkvFormat : MatroskaFormat version : Version 2File size : 1.95 GiBDuration : 1 h 27 minOverall bit rate : 3 204 kb/sMovie name : Je vous présente ma femmeReleased date : 2013-04-16Encoded date : UTC 2016-07-17 11:53:48Writing application : mkvmerge v9.3.1 ('Mask Machine') 64bitWriting library : libebml v1.3.4 + libmatroska v1.4.5Cover : YesAttachments : cover.png / small_cover.pngACTOR : Catherine Jacob, Fabio ZenoniDIRECTOR : Élisabeth RappeneauGENRE : ComedyIMDB : tt2841610KEYWORDS : perectracker.orgLAW_RATING : 16+
    VideoID : 1Format : MPEG VideoFormat version : Version 2Format profile : Main@MainFormat settings, BVOP : YesFormat settings, Matrix : CustomFormat settings, GOP : M=4, N=12Format settings, picture structure : FrameCodec ID : V_MPEG2Codec ID/Info : MPEG 1 or 2 VideoDuration : 1 h 27 minBit rate : 2 949 kb/sMaximum bit rate : 3 200 kb/sWidth : 720 pixelsHeight : 576 pixelsDisplay aspect ratio : 16:9Frame rate mode : ConstantFrame rate : 25.000 FPSStandard : PALColor space : YUVChroma subsampling : 4:2:0Bit depth : 8 bitsScan type : InterlacedScan order : Top Field FirstCompression mode : LossyBits/(Pixel*Frame) : 0.284Stream size : 1.79 GiB (92%)Default : YesForced : No
    AudioID : 2Format : MPEG AudioFormat version : Version 1Format profile : Layer 2Codec ID : A_MPEG/L2Codec ID/Hint : MP2Duration : 1 h 27 minBit rate mode : ConstantBit rate : 192 kb/sChannel(s) : 2 channelsSampling rate : 48.0 kHzCompression mode : LossyStream size : 120 MiB (6%)Language : FrenchDefault : YesForced : No
    Text #1ID : 3Format : UTF-8Codec ID : S_TEXT/UTF8Codec ID/Info : UTF-8 Plain TextLanguage : RussianDefault : NoForced : No
    Text #2ID : 4Format : UTF-8Codec ID : S_TEXT/UTF8Codec ID/Info : UTF-8 Plain TextLanguage : EnglishDefault : NoForced : No
    Text #3ID : 5Format : UTF-8Codec ID : S_TEXT/UTF8Codec ID/Info : UTF-8 Plain TextLanguage : FrenchDefault : NoForced : No
    Text #4ID : 6Format : UTF-8Codec ID : S_TEXT/UTF8Codec ID/Info : UTF-8 Plain TextLanguage : GermanDefault : NoForced : No
    Text #5ID : 7Format : UTF-8Codec ID : S_TEXT/UTF8Codec ID/Info : UTF-8 Plain TextLanguage : DutchDefault : NoForced : No

    Скриншот c названием фильма

    Скриншоты

    Резервные скриншоты


    -
    Скачать .torrent

    Скачать торрент-файл бесплатно и на максимальной скорости!

    Как скачивать? · Что такое торрент? · Рейтинг и ограничения

    !ВНИМАНИЕ!
    Сайт не распространяет и не хранит электронные версии произведений, а занимается лишь лишь предоставлением доступа к создаваемому пользователями каталогу ссылок на торрент-файлы, которые содержат только списки хеш-сумм, убедительная просьба с жалобами обращаться напрямую к пользователю. Файлы для обмена на трекере предоставлены пользователями сайта, и администрация не несёт ответственности за их содержание. Просьба не заливать файлы, защищенные авторскими правами, а также файлы нелегального содержания!


    _________________
    [Профиль] [ЛС]
    Показать сообщения:    
    Ответить на тему

    Текущее время: Сегодня, в 14:33

    Часовой пояс: GMT + 2



    Вы не можете начинать темы
    Вы не можете отвечать на сообщения
    Вы не можете редактировать свои сообщения
    Вы не можете удалять свои сообщения
    Вы не можете голосовать в опросах
    Вы не можете прикреплять файлы к сообщениям
    Вы не можете скачивать файлы