BitTorrentTracker PerecTracker.org
BitTorrentTracker PerecTracker.org
    
Регистрация  ·  Вход
 
 · 
Забыли пароль?

  • Пациент всегда прав / Royal Pains / Сезон: 8 / Серии: 1-8 из 8 (Джейс Александр) [2016, комедия, WEB-DLRip] MVO (NewStudio) + Original

    Ответить на тему
     
    Автор Сообщение

    rechyn

    Создавать темы 16-Июл-2016 22:10

           

    [Цитировать]

    -Пациент всегда прав | Royal Pains-Год выпуска: 2016
    Страна: США
    Жанр: Комедия
    Продолжительность: ~ 00:43:00-Перевод: Профессиональный (многоголосый закадровый) | NewStudio-Режиссёр: Джейс Александр-В ролях: Марк Фойерстин, Паоло Костанзо, Кэмпбелл Скотт, Джилл Флинт, Джеймс П. Андерсон, Тайлер Аллен-Описание: Хэнк Лоусон – молодой талантливый врач, у которого есть все атрибуты успеха: блестящая карьера, невеста-красавица. Но, обвиненный в совершении врачебной ошибки, Хэнк остается без работы и попадает в «черный список» всех медицинских учреждений Нью-Йорка. Невеста тут же «испаряется», оставив ему стопку счетов на оплату несостоявшейся свадьбы. Брат уговаривает Хэнка поехать на курорт, отдохнуть и развеяться. Случайно молодой врач оказывается в нужном месте в нужное время и спасает жизнь фотомодели на закрытой вечеринке «для избранных». С этого момента у Хэнка отбоя нет от богачей и знаменитостей, которые просят помочь разобраться с их проблемами. В жизни Хэнка начинается новый этап, но хочет ли он быть «доктором по вызову»? Сможет ли он себя найти в мире денег и власти?--| Ссылка на предыдущие и альтернативные раздачи-Качество: WEB-DLRip
    Формат: AVI
    Видео: XviD, ~ 1500 kbps, 720x400 (16:9), 23,976 fps
    Аудио 1: MP3, 48,0 КГц, 2 ch, 128 kbps - Rus
    Аудио 2: MP3, 48,0 КГц, 2 ch, 128 kbps - Eng
    Субтитры: отсутствуют-полностью отсутствует реклама.-

    Релиз

    Озвучка: NewStudio
    Перевод: Булат Карабасов

    MediaInfo

    Общее
    Полное имя                               : D:\загрузки\Royal Pains (season 08) NewStudio\Royal.Pains.s08e01.WEBDLRip.NewStudio.avi
    Формат                                   : AVI
    Формат/Информация                        : Audio Video Interleave
    Размер файла                             : 550 Мбайт
    Продолжительность                        : 42 м.
    Общий поток                              : 1826 Кбит/сек
    Программа кодирования                    : VirtualDubMod 1.5.10.3 | www.virtualdub-fr.org || (build 2550/release)
    Библиотека кодирования                   : VirtualDubMod build 2550/release
    Видео
    Идентификатор                            : 0
    Формат                                   : MPEG-4 Visual
    Профиль формата                          : Advanced Simple@L5
    Параметр BVOP формата                    : 1
    Параметр QPel формата                    : Нет
    Параметр GMC формата                     : Без точки перехода
    Параметр матрицы формата                 : Default (MPEG)
    Идентификатор кодека                     : XVID
    Идентификатор кодека/Подсказка           : XviD
    Продолжительность                        : 42 м.
    Битрейт                                  : 1556 Кбит/сек
    Ширина                                   : 720 пикселей
    Высота                                   : 400 пикселей
    Соотношение сторон                       : 16:9
    Частота кадров                           : 23,976 кадра/сек
    Цветовое пространство                    : YUV
    Субдискретизация насыщенности            : 4:2:0
    Битовая глубина                          : 8 бит
    Тип развёртки                            : Прогрессивная
    Метод сжатия                             : С потерями
    Бит/(Пиксели*Кадры)                      : 0.225
    Размер потока                            : 469 Мбайт (85%)
    Библиотека кодирования                   : XviD 73
    Аудио #1
    Идентификатор                            : 1
    Формат                                   : MPEG Audio
    Версия формата                           : Version 1
    Профиль формата                          : Layer 3
    Режим                                    : Joint stereo
    Расширение режима                        : MS Stereo
    Идентификатор кодека                     : 55
    Идентификатор кодека/Подсказка           : MP3
    Продолжительность                        : 42 м.
    Вид битрейта                             : Постоянный
    Битрейт                                  : 128 Кбит/сек
    Каналы                                   : 2 канала
    Частота                                  : 48,0 КГц
    Метод сжатия                             : С потерями
    Размер потока                            : 38,6 Мбайт (7%)
    Выравнивание                             : Соединение по промежуткам
    Продолжительность промежутка             : 42  мс. (1,00 видеокадр)
    Время предзагрузки промежутка            : 504  мс.
    Аудио #2
    Идентификатор                            : 2
    Формат                                   : MPEG Audio
    Версия формата                           : Version 1
    Профиль формата                          : Layer 3
    Режим                                    : Joint stereo
    Расширение режима                        : MS Stereo
    Идентификатор кодека                     : 55
    Идентификатор кодека/Подсказка           : MP3
    Продолжительность                        : 42 м.
    Вид битрейта                             : Постоянный
    Битрейт                                  : 128 Кбит/сек
    Каналы                                   : 2 канала
    Частота                                  : 48,0 КГц
    Метод сжатия                             : С потерями
    Размер потока                            : 38,6 Мбайт (7%)
    Выравнивание                             : Соединение по промежуткам
    Продолжительность промежутка             : 42  мс. (1,00 видеокадр)
    Время предзагрузки промежутка            : 504  мс.

    Скриншоты

    Раздача ведется путем добавления новых серий

    Когда раздача ведётся путём добавления новых серий, при каждом добавлении создётся новый торрент. Чтобы начать докачку новой серии, пользователям необходимо сделать следующее:
    (1) остановить скачивание,
    (2) удалить старый торрент у себя из клиента (старые серии удалять не надо),
    (3) скачать новый торрент и запустить его у себя в клиенте вместо старого, при этом указать клиенту путь в старую папку, куда и должно происходить скачивание новых серий.
    Ваш клиент при этом должен произвести хеширование (проверку) старой папки (если не производит сам - помогите ему сделать это), и будет докачивать только те серии, которых у вас ещё нет. Старые серии при этом не удаляются, а продолжают раздаваться!
    Eсли вы уже удалили старые серии, то предотвратить повторную закачку старых серий можно, отжав галочку в соответсвующих местах при запуске нового торрента. По возможности, желательно не удалять старые серии как можно дольше, чтобы релизёр не столько продолжал раздавать старые серии, а смог сконцентрироваться на новых.
    -
    Скачать .torrent

    Скачать торрент-файл бесплатно и на максимальной скорости!

    Как скачивать? · Что такое торрент? · Рейтинг и ограничения

    !ВНИМАНИЕ!
    Сайт не распространяет и не хранит электронные версии произведений, а занимается лишь лишь предоставлением доступа к создаваемому пользователями каталогу ссылок на торрент-файлы, которые содержат только списки хеш-сумм, убедительная просьба с жалобами обращаться напрямую к пользователю. Файлы для обмена на трекере предоставлены пользователями сайта, и администрация не несёт ответственности за их содержание. Просьба не заливать файлы, защищенные авторскими правами, а также файлы нелегального содержания!


    _________________
    [Профиль] [ЛС]
    Показать сообщения:    
    Ответить на тему

    Текущее время: Сегодня, в 10:30

    Часовой пояс: GMT + 2



    Вы не можете начинать темы
    Вы не можете отвечать на сообщения
    Вы не можете редактировать свои сообщения
    Вы не можете удалять свои сообщения
    Вы не можете голосовать в опросах
    Вы не можете прикреплять файлы к сообщениям
    Вы не можете скачивать файлы