BitTorrentTracker PerecTracker.org
BitTorrentTracker PerecTracker.org
    
Регистрация  ·  Вход
 
 · 
Забыли пароль?

  • Дама под вуалью / La dama velata / Сезон: 1 / Серии: 1-12 из 12 (Кармине Элиа / Carmine Elia) [2015, драма, HDTV 1080i] MVO

    Ответить на тему
     
    Автор Сообщение

    rechyn

    Создавать темы 16-Июл-2016 21:58

           

    [Цитировать]

    Дама под вуалью / La dama velata1 сезон: Серии 1-12 из 12Год выпуска: 2015
    Страна: Италия
    Жанр: драма
    Продолжительность: ~ 00:50:00 серия
    Перевод: Профессиональный (многоголосый закадровый)
    Режиссёр: Кармине Элиа / Carmine Elia
    В ролях: Germano Bellavia, Андреа Боска, Giusy Frallonardo, Лино Гуанчале, Лукреция Ланте Делла Ровере, Мириам Леоне, Паоло Маццарелли, Тереза Сапонанджело, Лучиано Вирджилио, Франческо Сальви
    Описание: Конец XIX столетия, жена графа Гранди умирает, произведя на свет двойняшек: мальчика и девочку. Аделаиде — родственница графа Гранди и мать Корнелио — единственного потомка мужского пола в роду Гранди, заставляет старого графа поверить, что родилась только девочка — Клара. Возненавидев девочку, граф оставляет её на воспитание в семье фермеров Стайнери, которые вырастят её как родную, вместе с Маттео, которого тоже взяли на воспитание.
    Повзрослев, Клара и Маттео решают пожениться, но неожиданно в их жизнь вмешивается старый граф, который забирает дочь в Тренто, чтобы впоследствии выдать её замуж за незнакомца, чтобы получить наследника рода. Клара замышляет побег, договаривается с Маттео, но непредвиденные обстоятельства мешают их планам осуществиться. В то же время Клара знакомится с молодым графом — Гуидо, светским фатом и волокитой с таинственным прошлым. Она ещё не знает, как их судьбы переплетутся…
    Ссылка на предыдущие и альтернативные раздачи
    Сэмпл: http://sendfile.su/1250580

    Качество: HDTV 1080i
    Контейнер: TS
    Видео: AVC/H.264, PAL, 1920х1080 (16:9), 25 fps, 11,3 Мбит/сек
    Аудио 1: русский, MP2, 48000 Hz, 192 Кбит/сек, 2 ch
    Аудио 2: русский, AC3, 48000 Hz, 448 Кбит/сек, 6 ch
    Субтитры: отсутствуют

    MediaInfo

    Общее
    Идентификатор : 1 (0x1)
    Полное имя : G:\Раздать\Дама под вуалью\Дама под вуалью (01 серия).ts
    Формат : MPEG-TS
    Размер файла : 4,57 Гбайт
    Продолжительность : 52 м.
    Режим общего битрейта : Переменный
    Общий поток : 12,6 Мбит/сек
    Видео
    Идентификатор : 3031 (0xBD7)
    Идентификатор меню : 1 (0x1)
    Формат : AVC
    Формат/Информация : Advanced Video Codec
    Профиль формата : Main@L4.0
    Параметр CABAC формата : Да
    Параметр ReFrames формата : 3 кадра
    Идентификатор кодека : 27
    Продолжительность : 52 м.
    Битрейт : 11,3 Мбит/сек
    Ширина : 1920 пикселей
    Высота : 1080 пикселей
    Соотношение сторон : 16:9
    Частота кадров : 25,000 кадров/сек
    Стандарт вещания : Component
    Цветовое пространство : YUV
    Субдискретизация насыщенности : 4:2:0
    Битовая глубина : 8 бит
    Тип развёртки : Чересстрочная
    Порядок развёртки : Верхнее поле первое
    Бит/(Пиксели*Кадры) : 0.218
    Размер потока : 4,11 Гбайт (90%)
    Основные цвета : BT.709
    Характеристики трансфера : BT.709
    Коэффициенты матрицы : BT.709
    colour_range : Limited
    Аудио #1
    Идентификатор : 3032 (0xBD8)
    Идентификатор меню : 1 (0x1)
    Формат : MPEG Audio
    Версия формата : Version 1
    Профиль формата : Layer 2
    Идентификатор кодека : 3
    Продолжительность : 52 м.
    Вид битрейта : Постоянный
    Битрейт : 192 Кбит/сек
    Каналы : 2 канала
    Частота : 48,0 КГц
    Метод сжатия : С потерями
    Размер потока : 71,6 Мбайт (2%)
    Язык : Russian
    Аудио #2
    Идентификатор : 3033 (0xBD9)
    Идентификатор меню : 1 (0x1)
    Формат : AC-3
    Формат/Информация : Audio Coding 3
    Расширение режима : CM (complete main)
    Параметр Endianness формата : Big
    Идентификатор кодека : 6
    Продолжительность : 52 м.
    Вид битрейта : Постоянный
    Битрейт : 448 Кбит/сек
    Каналы : 6 каналов
    Расположение каналов : Front: L C R, Side: L R, LFE
    Частота : 48,0 КГц
    Битовая глубина : 16 бит
    Метод сжатия : С потерями
    Размер потока : 167 Мбайт (4%)
    Язык : Russian

    Скриншот с названием фильма

    Скриншоты

    Скачать .torrent

    Скачать торрент-файл бесплатно и на максимальной скорости!

    Как скачивать? · Что такое торрент? · Рейтинг и ограничения

    !ВНИМАНИЕ!
    Сайт не распространяет и не хранит электронные версии произведений, а занимается лишь лишь предоставлением доступа к создаваемому пользователями каталогу ссылок на торрент-файлы, которые содержат только списки хеш-сумм, убедительная просьба с жалобами обращаться напрямую к пользователю. Файлы для обмена на трекере предоставлены пользователями сайта, и администрация не несёт ответственности за их содержание. Просьба не заливать файлы, защищенные авторскими правами, а также файлы нелегального содержания!


    _________________
    [Профиль] [ЛС]
    Показать сообщения:    
    Ответить на тему

    Текущее время: Сегодня, в 09:47

    Часовой пояс: GMT + 2



    Вы не можете начинать темы
    Вы не можете отвечать на сообщения
    Вы не можете редактировать свои сообщения
    Вы не можете удалять свои сообщения
    Вы не можете голосовать в опросах
    Вы не можете прикреплять файлы к сообщениям
    Вы не можете скачивать файлы