BitTorrentTracker PerecTracker.org
BitTorrentTracker PerecTracker.org
    
Регистрация  ·  Вход
 
 · 
Забыли пароль?

  • Клевермэн / Cleverman / Сезон: 1 / Серии: 1-6 из 6 (Уэйн Блэр, Леа Пурселл) [2016, Фантастика, WEBDLRip] MVO (NewStudio)

    Ответить на тему
     
    Автор Сообщение

    rechyn

    Создавать темы 16-Июл-2016 21:56

           

    [Цитировать]

    ---Клевермэн / ClevermanГод выпуска: 2016
    Страна: США, Австралия, Новая Зеландия
    Жанр: Фантастика
    Продолжительность: ~ 00:50:00
    Премьера (мир): 2 июня 2016
    Перевод: Профессиональный (многоголосый закадровый) / NewStudio
    Режиссёр: Уэйн Блэр, Леа Пурселл
    В ролях: Иэн Глен, Фрэнсис О’Коннор, Дебора Мэйлман, Хантер Пейдж-Лошар, Стэф Доусон, Райан Корр, Тасма Уолтон, Тони Бриггс, Робин Невин, Линетт Каррен и другие
    Описание:
    Действие сериала разворачивается в недалеком будущем. Существа из австралийских мифов и легенд проникли в нашу реальность и захватили мир людей, и теперь человечество вынуждено ютиться в небольшой общине, опасаясь за свою жизнь. В центре событий — история двух братьев, которые, несмотря на давнюю вражду, объединяют усилия в борьбе за выживание.
    - --| Ссылка на предыдущие и альтернативные раздачи--Качество: WEBDLRip
    Формат: AVI
    Видео: MPEG4, XviD, 720x400 (16:9), 23.976 fps, 1 634 Kbps (0.237 bit/pixel)
    Аудио: MP3, 48.0 KHz, 2 ch, 128 Kbps, CBR
    Субтитры: отсутствуют
    -

    Список серий

    01. Первый контакт / First Contact
    02. Карантин / Containment
    03. Свободный рейнджер / A Free Ranger
    04. Солнце и луна / Sun and Moon
    05. ........................ / A Man of Vision
    06. ........................ / Terra Nullius

    Дата выхода серий

    1x01 - First Contact - 1 июня 2016
    1x02 - Containment - 8 июня 2016
    1x03 - A Free Ranger - 15 июня 2016
    1x04 - Sun and Moon - 22 июня 2016
    1x05 - Серия 5 - 30 июня 2016
    1x06 - Серия 6 - 7 июля 2016

    MediaInfo

    F:\P.N.L\Cleverman (Season 01) NewStudio\Cleverman.s01e01.WEBDLRip.NewStudio.avi
       General
          Complete name : F:\P.N.L\Cleverman (Season 01) NewStudio\Cleverman.s01e01.WEBDLRip.NewStudio.avi
          Format : AVI
          Format/Info : Audio Video Interleave
          File size : 640 MiB
          Duration : 50mn 31s
          Overall bit rate : 1 771 Kbps
          Writing application : VirtualDubMod 1.5.10.2 (build 2540/release)
          Writing library : VirtualDub build 35491/release
       Video #0
          ID : 0
          Format : MPEG-4 Visual
          Format profile : Advanced Simple@L5
          Format settings, BVOP : 2
          Format settings, QPel : No
          Format settings, GMC : No warppoints
          Format settings, Matrix : Default (MPEG)
          Codec ID : XVID
          Codec ID/Hint : XviD
          Duration : 50mn 31s
          Bit rate : 1 634 Kbps
          Width : 720 pixels
          Height : 400 pixels
          Display aspect ratio : 16:9
          Frame rate : 23.976 fps
          Color space : YUV
          Chroma subsampling : 4:2:0
          Bit depth : 8 bits
          Scan type : Progressive
          Compression mode : Lossy
          Bits/(Pixel*Frame) : 0.237
          Stream size : 590 MiB (92%)
          Writing library : XviD 73
       Audio #1
          ID : 1
          Format : MPEG Audio
          Format version : Version 1
          Format profile : Layer 3
          Mode : Joint stereo
          Mode extension : MS Stereo
          Codec ID : 55
          Codec ID/Hint : MP3
          Duration : 50mn 31s
          Bit rate mode : Constant
          Bit rate : 128 Kbps
          Channel(s) : 2 channels
          Sampling rate : 48.0 KHz
          Compression mode : Lossy
          Stream size : 46.3 MiB (7%)
          Alignment : Aligned on interleaves
          Interleave, duration : 42 ms (1.00 video frame)
          Interleave, preload duration : 504 ms

    Скриншоты


    -
    Скачать .torrent

    Скачать торрент-файл бесплатно и на максимальной скорости!

    Как скачивать? · Что такое торрент? · Рейтинг и ограничения

    !ВНИМАНИЕ!
    Сайт не распространяет и не хранит электронные версии произведений, а занимается лишь лишь предоставлением доступа к создаваемому пользователями каталогу ссылок на торрент-файлы, которые содержат только списки хеш-сумм, убедительная просьба с жалобами обращаться напрямую к пользователю. Файлы для обмена на трекере предоставлены пользователями сайта, и администрация не несёт ответственности за их содержание. Просьба не заливать файлы, защищенные авторскими правами, а также файлы нелегального содержания!


    _________________
    [Профиль] [ЛС]
    Показать сообщения:    
    Ответить на тему

    Текущее время: Сегодня, в 10:41

    Часовой пояс: GMT + 2



    Вы не можете начинать темы
    Вы не можете отвечать на сообщения
    Вы не можете редактировать свои сообщения
    Вы не можете удалять свои сообщения
    Вы не можете голосовать в опросах
    Вы не можете прикреплять файлы к сообщениям
    Вы не можете скачивать файлы