BitTorrentTracker PerecTracker.org
BitTorrentTracker PerecTracker.org
    
Регистрация  ·  Вход
 
 · 
Забыли пароль?

  • Видок / Vidocq (Питоф / Pitof) [2001, Франция, фантастика, фэнтези, боевик, триллер, криминал, детектив, BDRip 720p] Dub + AVO (Гаврилов) + Original (Fre) + Sub (Rus, Eng, Fre)

    Ответить на тему
     
    Автор Сообщение

    Light

    Создавать темы 16-Июл-2016 16:40

           

    [Цитировать]

    Видок / Vidocq«Пришло время узнать правду...»-Страна: Франция
    Жанр: фантастика, фэнтези, боевик, триллер, криминал, детектив
    Год выпуска: 2001
    Продолжительность: 01:37:39-Перевод №1: Профессиональный (дублированный)
    Перевод №2: Авторский (одноголосый закадровый) - А.Гаврилов
    Оригинальная аудиодорожка: French
    Cубтитры: Русские (полные), English (full + full - Pamela Grant), French (full)
    Навигация по главам: присутствует - 13 глав-Режиссер: Питоф / Pitof
    В ролях: Жерар Депардье, Гийом Кане, Инес Састре, Андре Дюссолье, Эдит Скоб, Мусса Мааскри, Жан-Пьер Гос, Изабель Рено, Жан-Поль Дюбуа, Андре Пенверн-Описание: Париж ХIХ века охвачен паникой. В его «чреве» завелся серийный убийца, которого может вычислить только гениальный сыщик Видок. Реальный исторический персонаж, не знающий удержу ни в своих перевоплощениях, ни в дьявольской интуиции. Он мчится по следу загадочного Алхимика.- -Качество видео: BDRip 720p | исх. Vidocq 2001 1080p JPN Blu-ray AVC TrueHD 5.1
    Формат: MKV-Видео: 1280x698 (1.85:1), 23.976 fps, H.264, 8441 kb/s, 0.385 bit/pixel
    Аудио №1: 48.0 kHz, AC3 Dolby Digital, 3/2 (L,C,R,l,r) + LFE ch, ~384.00 kbps avg | Профессиональный (дублированный)
    Аудио №2: 48.0 kHz, AC3 Dolby Digital, 3/2 (L,C,R,l,r) + LFE ch, ~448.00 kbps avg | Авторский (одноголосый закадровый) - А.Гаврилов
    Аудио №3: 48.0 kHz, AC3 Dolby Digital, 3/2 (L,C,R,l,r) + LFE ch, ~640.00 kbps avg | French
    Субтитры №1: Русские (полные) | *.srt
    Субтитры №2: English (full) | *.srt
    Субтитры №3: English (full - Pamela Grant) | *.srt
    Субтитры №4: French (full) | *.srt-

    Видеоряд от JewelBox

    Vidocq 2001 720p BluRay DD5.1 x264-JewelBox
    CONTAINER FORMAT..: Matroska
    SIZE..............: 6.20 GiB
    RUNTIME...........: 01:37:39
    FRAMERATE.........: 23.976 fps
    RESOLUTION........: 1280x698
    ASPECT RATIO......: 1.85:1
    VIDEO CODEC.......: x264, High@L4.1, ref=9
    VIDEO BITRATE.....: 8441 Kbps
    AUDIO.............: French AC-3 6ch @ 640 Kbps
    SUBTITLES.........: 2x Eng, Fre (.srt)
    CHAPTERS..........: Included
    SOURCE............: Vidocq 2001 1080p JPN Blu-ray AVC TrueHD 5.1
    ENCODER...........: FreddKruger
    RELEASE DATE......: 15/07/2016
    x264 [info]: frame I:1007 Avg QP:15.21 size:154235
    x264 [info]: frame P:32444 Avg QP:16.56 size: 79299
    x264 [info]: frame B:107029 Avg QP:18.73 size: 32271
    x264 [info]: consecutive B-frames: 3.2% 3.1% 10.4% 17.6% 13.6% 47.4% 2.8% 0.4% 0.4% 0.2% 0.2% 0.1% 0.1% 0.1% 0.4%
    x264 [info]: kb/s:8440.76-Source / JewelBox / sergey_n / promoghost




    MediaInfo

    General
    Unique ID : 193932914470536280474037070762878356237 (0x91E61EE761CC200E826057E48B12CB0D)
    Complete name : D:\Movie\Encode\Vidocq.2001.BDRip 720p.x264-tRuAVC.mkv
    Format : Matroska
    Format version : Version 4 / Version 2
    File size : 6.77 GiB
    Duration : 1h 37mn
    Overall bit rate : 9 906 Kbps
    Movie name : Vidocq (2001) - BDRip 720p © Fredd Kruger
    Encoded date : UTC 2016-07-15 14:24:42
    Writing application : mkvmerge v9.2.0 ('Photograph') 64bit
    Writing library : libebml v1.3.3 + libmatroska v1.4.4
    Attachements : cover.png
    DURATION : 01:33:42.112000000
    NUMBER_OF_FRAMES : 705
    NUMBER_OF_BYTES : 25181
    _STATISTICS_WRITING_APP : mkvmerge v9.2.0 ('Photograph') 64bit
    _STATISTICS_WRITING_DATE_UT : 2016-07-15 14:24:42
    _STATISTICS_TAGS : BPS DURATION NUMBER_OF_FRAMES NUMBER_OF_BYTES
    Video
    ID : 1
    Format : AVC
    Format/Info : Advanced Video Codec
    Format profile : High@L4.1
    Format settings, CABAC : Yes
    Format settings, ReFrames : 9 frames
    Codec ID : V_MPEG4/ISO/AVC
    Duration : 1h 37mn
    Bit rate : 8 237 Kbps
    Width : 1 280 pixels
    Height : 698 pixels
    Display aspect ratio : 1.85:1
    Frame rate mode : Constant
    Frame rate : 23.976 fps
    Color space : YUV
    Chroma subsampling : 4:2:0
    Bit depth : 8 bits
    Scan type : Progressive
    Bits/(Pixel*Frame) : 0.385
    Stream size : 5.63 GiB (83%)
    Title : Vidocq 2001 720p BluRay DD5.1 x264-JewelBox
    Writing library : x264 core 148 r2705kMod 3f5ed56
    Encoding settings : cabac=1 / ref=9 / deblock=1:-3:-3 / analyse=0x3:0x133 / me=umh / subme=11 / psy=1 / fade_compensate=0.00 / psy_rd=0.95:0.05 / mixed_ref=1 / me_range=48 / chroma_me=1 / trellis=2 / 8x8dct=1 / cqm=0 / deadzone=21,11 / fast_pskip=0 / chroma_qp_offset=-3 / threads=12 / lookahead_threads=3 / sliced_threads=0 / nr=0 / decimate=1 / interlaced=0 / bluray_compat=0 / constrained_intra=0 / fgo=0 / bframes=14 / b_pyramid=2 / b_adapt=2 / b_bias=0 / direct=3 / weightb=1 / open_gop=0 / weightp=2 / keyint=250 / keyint_min=23 / scenecut=40 / intra_refresh=0 / rc_lookahead=60 / rc=crf / mbtree=0 / crf=17.2000 / qcomp=0.60 / qpmin=0 / qpmax=69 / qpstep=4 / vbv_maxrate=62500 / vbv_bufsize=78125 / crf_max=0.0 / nal_hrd=none / filler=0 / ip_ratio=1.40 / pb_ratio=1.30 / aq=3:1.00
    Language : French
    Default : Yes
    Forced : Yes
    Color range : Limited
    Color primaries : BT.709
    Transfer characteristics : BT.709
    Matrix coefficients : BT.709
    DURATION : 01:37:39.187000000
    NUMBER_OF_FRAMES : 140480
    NUMBER_OF_BYTES : 6182001099
    _STATISTICS_WRITING_APP : mkvmerge v9.2.0 ('Photograph') 64bit
    _STATISTICS_WRITING_DATE_UT : 2016-07-15 14:24:42
    _STATISTICS_TAGS : BPS DURATION NUMBER_OF_FRAMES NUMBER_OF_BYTES
    Audio #1
    ID : 2
    Format : AC-3
    Format/Info : Audio Coding 3
    Mode extension : CM (complete main)
    Format settings, Endianness : Big
    Codec ID : A_AC3
    Duration : 1h 37mn
    Bit rate mode : Constant
    Bit rate : 384 Kbps
    Channel(s) : 6 channels
    Channel positions : Front: L C R, Side: L R, LFE
    Sampling rate : 48.0 KHz
    Compression mode : Lossy
    Stream size : 269 MiB (4%)
    Title : Профессиональный (дублированный)
    Language : Russian
    Default : Yes
    Forced : No
    Audio #2
    ID : 3
    Format : AC-3
    Format/Info : Audio Coding 3
    Mode extension : CM (complete main)
    Format settings, Endianness : Big
    Codec ID : A_AC3
    Duration : 1h 37mn
    Bit rate mode : Constant
    Bit rate : 448 Kbps
    Channel(s) : 6 channels
    Channel positions : Front: L C R, Side: L R, LFE
    Sampling rate : 48.0 KHz
    Compression mode : Lossy
    Stream size : 313 MiB (5%)
    Title : Авторский (одноголосый закадровый) - А.Гаврилов
    Language : Russian
    Default : No
    Forced : No
    Audio #3
    ID : 4
    Format : AC-3
    Format/Info : Audio Coding 3
    Mode extension : CM (complete main)
    Format settings, Endianness : Big
    Codec ID : A_AC3
    Duration : 1h 37mn
    Bit rate mode : Constant
    Bit rate : 640 Kbps
    Channel(s) : 6 channels
    Channel positions : Front: L C R, Side: L R, LFE
    Sampling rate : 48.0 KHz
    Compression mode : Lossy
    Stream size : 448 MiB (6%)
    Language : French
    Default : No
    Forced : No
    Text #1
    ID : 5
    Format : UTF-8
    Codec ID : S_TEXT/UTF8
    Codec ID/Info : UTF-8 Plain Text
    Title : полные
    Language : Russian
    Default : No
    Forced : No
    Text #2
    ID : 6
    Format : UTF-8
    Codec ID : S_TEXT/UTF8
    Codec ID/Info : UTF-8 Plain Text
    Title : full
    Language : English
    Default : No
    Forced : No
    Text #3
    ID : 7
    Format : UTF-8
    Codec ID : S_TEXT/UTF8
    Codec ID/Info : UTF-8 Plain Text
    Title : full - Pamela Grant
    Language : English
    Default : No
    Forced : No
    Text #4
    ID : 8
    Format : UTF-8
    Codec ID : S_TEXT/UTF8
    Codec ID/Info : UTF-8 Plain Text
    Title : full
    Language : French
    Default : No
    Forced : No
    Menu
    00:00:00.000 : en:Chapter 1
    00:06:32.684 : en:Chapter 2
    00:10:33.633 : en:Chapter 3
    00:19:11.817 : en:Chapter 4
    00:27:06.625 : en:Chapter 5
    00:41:31.864 : en:Chapter 6
    00:54:08.745 : en:Chapter 7
    01:04:34.120 : en:Chapter 8
    01:12:49.907 : en:Chapter 9
    01:20:16.311 : en:Chapter 10
    01:25:23.827 : en:Chapter 11
    01:32:03.268 : en:Chapter 12
    01:33:42.200 : en:Chapter 13

    Screenshots

    Цитата:

    • Русская DTS дорога убита в хлам, по частотному диапазону центрального канала аудишн показывает 14-16 кГц.
    Скачать .torrent

    Скачать торрент-файл бесплатно и на максимальной скорости!

    Как скачивать? · Что такое торрент? · Рейтинг и ограничения

    !ВНИМАНИЕ!
    Сайт не распространяет и не хранит электронные версии произведений, а занимается лишь лишь предоставлением доступа к создаваемому пользователями каталогу ссылок на торрент-файлы, которые содержат только списки хеш-сумм, убедительная просьба с жалобами обращаться напрямую к пользователю. Файлы для обмена на трекере предоставлены пользователями сайта, и администрация не несёт ответственности за их содержание. Просьба не заливать файлы, защищенные авторскими правами, а также файлы нелегального содержания!


    _________________
    [Профиль] [ЛС]
    Показать сообщения:    
    Ответить на тему

    Текущее время: Сегодня, в 03:24

    Часовой пояс: GMT + 2



    Вы не можете начинать темы
    Вы не можете отвечать на сообщения
    Вы не можете редактировать свои сообщения
    Вы не можете удалять свои сообщения
    Вы не можете голосовать в опросах
    Вы не можете прикреплять файлы к сообщениям
    Вы не можете скачивать файлы