BitTorrentTracker PerecTracker.org
BitTorrentTracker PerecTracker.org
    
Регистрация  ·  Вход
 
 · 
Забыли пароль?

  • Преступник / Criminal (Ариэль Вромен / Ariel Vromen) [2016, Великобритания, США, триллер, драма, криминал, BDRip 1080p] [US Transfer] Dub (iTunes) + 2x Sub (Eng) + Original Eng

    Ответить на тему
     
    Автор Сообщение

    Light

    Создавать темы 16-Июл-2016 16:40

           

    [Цитировать]

    Преступник / Criminal«The CIA's last hope is in the mind of a criminal»
    Страна: Великобритания, США
    Жанр: триллер, драма, криминал
    Год выпуска: 2016
    Продолжительность: 01:53:34
    Перевод: Профессиональный (дублированный) iTunes
    Cубтитры: английские [Full, SDH]
    Оригинальная аудиодорожка: английский
    -
    Режиссер: Ариэль Вромен / Ariel Vromen
    В ролях: Кевин Костнер, Гари Олдман, Томми Ли Джонс, Райан Рейнольдс, Элис Ив, Галь Гадот, Хорди Молья, Майкл Питт, Амори Ноласко, Антье Трауэ
    -
    Описание: Кто может играть и тягаться с опасным преступником, и мыслить как он?
    Видимо, хорошо обученный специальный агент или... такой же преступник, которому и не нужно изображать никого другого. А так как первая операция провалена (агент Билл Поуп, работавший под прикрытием, был убит), ЦРУ решается на повторную операцию, или точнее авантюру. Цель прежняя - разыскать и «нейтрализовать» свихнувшегося хакера с псевдонимом Голландец, который планирует развязать новый мировой конфликт. Но методы на этот раз будут иные - ведь поимкой преступника, согласно плану, будет заниматься... не менее опасный преступник Иерихон Стюарт, которого попытаются сделать новой личностью, «вживив» ему воспоминания погибшего агента Поупа...

    Тип релиза: BDRip 1080p
    Контейнер: MKV
    Видео: H.264 / NTSC 16:9 / 1918x804 (2,40:1) / 15937 kbps / 23,976 fps / 0.431 bit/pixel / High@L4.1
    Аудио 1: Russian / Dolby Digital Audio / 5.1 Ch / 48 kHz / 384 kbps / 16 bit / DUB
    Аудио 2: English / Digital Theater Systems / 5.1 Ch / 48 kHz / 1509 kbps / 24 bit / Original
    Формат субтитров: softsub (SRT)
    Навигация по главам: есть

    x264 iNFO

    x264 [info]: frame I:1097  Avg QP:12.73  size:244825
    x264 [info]: frame P:40769 Avg QP:13.58  size:130418
    x264 [info]: frame B:121527 Avg QP:15.92  size: 65747
    x264 [info]: consecutive B-frames:  3.4%  7.9% 13.2% 14.2% 17.4% 33.3%  4.7%  0.7%  1.4%  1.1%  1.1%  1.4%

    MediaInfo

    Общее
    Уникальный идентификатор                 : 188047245473985836961902208594748445610 (0x8D7895049F712A66978E4320952D13AA)
    Полное имя                               : N:\BDRip 1080p\Criminal.2016.BDRip.1080p.mkv
    Формат                                   : Matroska
    Версия формата                           : Version 4 / Version 2
    Размер файла                             : 14,1 Гбайт
    Продолжительность                        : 1 ч. 53 м.
    Общий поток                              : 17,8 Мбит/сек
    Название фильма                          : Release for RuTracker © flaSI-I
    Дата кодирования                         : UTC 2016-07-15 18:19:58
    Программа кодирования                    : mkvmerge v9.3.1 ('Mask Machine') 64bit
    Библиотека кодирования                   : libebml v1.3.4 + libmatroska v1.4.5
    Видео
    Идентификатор                            : 1
    Формат                                   : AVC
    Формат/Информация                        : Advanced Video Codec
    Профиль формата                          : High@L4.1
    Параметр CABAC формата                   : Да
    Параметр ReFrames формата                : 5 кадров
    Идентификатор кодека                     : V_MPEG4/ISO/AVC
    Продолжительность                        : 1 ч. 53 м.
    Битрейт                                  : 15,9 Мбит/сек
    Ширина                                   : 1918 пикселей
    Высота                                   : 804 пикселя
    Соотношение сторон                       : 2,40:1
    Режим частоты кадров                     : Постоянный
    Частота кадров                           : 23,976 (24000/1001) кадра/сек
    Цветовое пространство                    : YUV
    Субдискретизация насыщенности            : 4:2:0
    Битовая глубина                          : 8 бит
    Тип развёртки                            : Прогрессивная
    Бит/(Пиксели*Кадры)                      : 0.431
    Размер потока                            : 12,6 Гбайт (89%)
    Библиотека кодирования                   : x264 core 146 r2538 121396c
    Настройки программы                      : cabac=1 / ref=5 / deblock=1:-3:-3 / analyse=0x3:0x133 / me=tesa / subme=11 / psy=1 / psy_rd=1.04:0.00 / mixed_ref=1 / me_range=32 / chroma_me=1 / trellis=2 / 8x8dct=1 / cqm=0 / deadzone=21,11 / fast_pskip=0 / chroma_qp_offset=-2 / threads=60 / lookahead_threads=6 / sliced_threads=0 / nr=0 / decimate=0 / interlaced=0 / bluray_compat=0 / constrained_intra=0 / bframes=11 / b_pyramid=2 / b_adapt=2 / b_bias=0 / direct=3 / weightb=1 / open_gop=0 / weightp=2 / keyint=240 / keyint_min=23 / scenecut=40 / intra_refresh=0 / rc_lookahead=150 / rc=crf / mbtree=0 / crf=15.8 / qcomp=0.60 / qpmin=0 / qpmax=69 / qpstep=4 / vbv_maxrate=62500 / vbv_bufsize=78125 / crf_max=0.0 / nal_hrd=none / filler=0 / ip_ratio=1.40 / pb_ratio=1.30 / aq=1:0.80
    Язык                                     : English
    Default                                  : Да
    Forced                                   : Нет
    Аудио #1
    Идентификатор                            : 2
    Формат                                   : AC-3
    Формат/Информация                        : Audio Coding 3
    Расширение режима                        : CM (complete main)
    Параметр Endianness формата              : Big
    Идентификатор кодека                     : A_AC3
    Продолжительность                        : 1 ч. 53 м.
    Вид битрейта                             : Постоянный
    Битрейт                                  : 384 Кбит/сек
    Каналы                                   : 6 каналов
    Расположение каналов                     : Front: L C R, Side: L R, LFE
    Частота                                  : 48,0 КГц
    Частота кадров                           : 31,250 кадров/сек (1536 spf)
    Метод сжатия                             : С потерями
    Размер потока                            : 312 Мбайт (2%)
    Заголовок                                : DUB / iTunes
    Язык                                     : Russian
    Default                                  : Да
    Forced                                   : Нет
    Аудио #2
    Идентификатор                            : 3
    Формат                                   : DTS
    Формат/Информация                        : Digital Theater Systems
    Режим                                    : 16
    Параметр Endianness формата              : Big
    Идентификатор кодека                     : A_DTS
    Продолжительность                        : 1 ч. 53 м.
    Вид битрейта                             : Постоянный
    Битрейт                                  : 1509 Кбит/сек
    Каналы                                   : 6 каналов
    Расположение каналов                     : Front: L C R, Side: L R, LFE
    Частота                                  : 48,0 КГц
    Частота кадров                           : 93,750 кадра/сек (512 spf)
    Битовая глубина                          : 24 бит
    Метод сжатия                             : С потерями
    Размер потока                            : 1,20 Гбайт (8%)
    Заголовок                                : Original
    Язык                                     : English
    Default                                  : Нет
    Forced                                   : Нет
    Текст #1
    Идентификатор                            : 4
    Формат                                   : UTF-8
    Идентификатор кодека                     : S_TEXT/UTF8
    Идентификатор кодека/Информация          : UTF-8 Plain Text
    Продолжительность                        : 1 ч. 43 м.
    Битрейт                                  : 41 бит/сек
    Count of elements                        : 1016
    Размер потока                            : 31,5 Кбайт (0%)
    Заголовок                                : Original
    Язык                                     : English
    Default                                  : Нет
    Forced                                   : Нет
    Текст #2
    Идентификатор                            : 5
    Формат                                   : UTF-8
    Идентификатор кодека                     : S_TEXT/UTF8
    Идентификатор кодека/Информация          : UTF-8 Plain Text
    Продолжительность                        : 1 ч. 43 м.
    Битрейт                                  : 46 бит/сек
    Count of elements                        : 1272
    Размер потока                            : 35,1 Кбайт (0%)
    Заголовок                                : Original / SDH
    Язык                                     : English
    Default                                  : Нет
    Forced                                   : Нет
    Меню
    00:00:00.000                             : en:Chapter 1
    00:10:41.266                             : en:Chapter 2
    00:15:32.265                             : en:Chapter 3
    00:23:45.340                             : en:Chapter 4
    00:30:56.563                             : en:Chapter 5
    00:36:01.367                             : en:Chapter 6
    00:45:36.317                             : en:Chapter 7
    00:48:48.509                             : en:Chapter 8
    00:54:51.455                             : en:Chapter 9
    01:01:46.244                             : en:Chapter 10
    01:08:32.608                             : en:Chapter 11
    01:16:11.609                             : en:Chapter 12
    01:22:20.143                             : en:Chapter 13
    01:29:52.011                             : en:Chapter 14
    01:36:46.092                             : en:Chapter 15
    01:42:08.497                             : en:Chapter 16

    Скриншоты

    Скачать .torrent

    Скачать торрент-файл бесплатно и на максимальной скорости!

    Как скачивать? · Что такое торрент? · Рейтинг и ограничения

    !ВНИМАНИЕ!
    Сайт не распространяет и не хранит электронные версии произведений, а занимается лишь лишь предоставлением доступа к создаваемому пользователями каталогу ссылок на торрент-файлы, которые содержат только списки хеш-сумм, убедительная просьба с жалобами обращаться напрямую к пользователю. Файлы для обмена на трекере предоставлены пользователями сайта, и администрация не несёт ответственности за их содержание. Просьба не заливать файлы, защищенные авторскими правами, а также файлы нелегального содержания!


    _________________
    [Профиль] [ЛС]
    Показать сообщения:    
    Ответить на тему

    Текущее время: Сегодня, в 10:08

    Часовой пояс: GMT + 2



    Вы не можете начинать темы
    Вы не можете отвечать на сообщения
    Вы не можете редактировать свои сообщения
    Вы не можете удалять свои сообщения
    Вы не можете голосовать в опросах
    Вы не можете прикреплять файлы к сообщениям
    Вы не можете скачивать файлы