BitTorrentTracker PerecTracker.org
BitTorrentTracker PerecTracker.org
    
Регистрация  ·  Вход
 
 · 
Забыли пароль?

  • (Alternative Rock, Ambient, Electronic) Crosses (†††) (Chino Moreno, Shaun Lopez & Chuck Doom) - Дискография (1 Japanese CD + 2 Web-releases) 2011-2014, FLAC (image+.cue) / FLAC (tracks), lossless

    Ответить на тему
     
    Автор Сообщение

    Columb

    Создавать темы 16-Мар-2014 11:41

           

    [Цитировать]

    ††† / ДискографияЖанр: Alternative Rock, Ambient, Electronic
    Год издания: 2011-2014
    Страна: USA
    Битрейт аудио: lossless
    Продолжительность: 01:33:42
    Наличие сканов в содержимом раздачи: да (web-релизы)

    2011 - EP † (digital)

    Издатель (лейбл): †††
    Аудиокодек: FLAC (*.flac)
    Тип рипа: tracks
    Продолжительность: 00:18:33
    Источник (релизер): ††† shop
    Треклист:
    01. †his Is A †rick [3:07]
    02. Op†ion [4:25]
    03. Bermuda Locke† [3:42]
    04. †hholyghs† [4:26]
    05. † [2:53]

    Лог проверки качества

    AUDIOCHECKER v2.0 beta (build 457) - by Dester - opdester@freemail.hu~~~~~~~~~~~~~~~~~~~~~~~~~~~~~~~~~~
    Started at: воскресенье, 16. 03. 2014. - 14:30.515 files found
    1 -===- D:\!Torrent\Мои Раздачи\†††\††† - 2011 - EP †\01 - †his Is A †rick.flac Extracted successfully Conclusion: this track is CDDA with probability 100% Tempfile successfully deleted.
    2 -===- D:\!Torrent\Мои Раздачи\†††\††† - 2011 - EP †\02 - Op†ion.flac Extracted successfully Conclusion: this track is CDDA with probability 100% Tempfile successfully deleted.
    3 -===- D:\!Torrent\Мои Раздачи\†††\††† - 2011 - EP †\03 - Bermuda Locke†.flac Extracted successfully Conclusion: this track is CDDA with probability 100% Tempfile successfully deleted.
    4 -===- D:\!Torrent\Мои Раздачи\†††\††† - 2011 - EP †\04 - †hholyghs†.flac Extracted successfully Conclusion: this track is CDDA with probability 100% Tempfile successfully deleted.
    5 -===- D:\!Torrent\Мои Раздачи\†††\††† - 2011 - EP †\05 - †.flac Extracted successfully Conclusion: this track is MPEG with probability 100% Tempfile successfully deleted.
    Finished at: воскресенье, 16. 03. 2014. - 14:32.08 (operation time: 0:01.16)

    2012 - EP †† (digital)

    Издатель (лейбл): †††
    Аудиокодек: FLAC (*.flac)
    Тип рипа: tracks
    Продолжительность: 00:18:45
    Источник (релизер): ††† shop
    Треклист:
    01. Fron†ier [4:01]
    02. Prurien† [4:06]
    03. †elepa†hy [3:35]
    04. †rophys [3:52]
    05. 1987 [3:11]

    Лог проверки качества

    AUDIOCHECKER v2.0 beta (build 457) - by Dester - opdester@freemail.hu~~~~~~~~~~~~~~~~~~~~~~~~~~~~~~~~~~
    Started at: воскресенье, 16. 03. 2014. - 14:33.055 files found
    1 -===- D:\!Torrent\Мои Раздачи\†††\††† - 2012 - EP ††\01 - Fron†iers.flac Extracted successfully Conclusion: this track is CDDA with probability 99% Tempfile successfully deleted.
    2 -===- D:\!Torrent\Мои Раздачи\†††\††† - 2012 - EP ††\02 - Prurien†.flac Extracted successfully Conclusion: this track is CDDA with probability 100% Tempfile successfully deleted.
    3 -===- D:\!Torrent\Мои Раздачи\†††\††† - 2012 - EP ††\03 - †elepa†hy.flac Extracted successfully Conclusion: this track is CDDA with probability 100% Tempfile successfully deleted.
    4 -===- D:\!Torrent\Мои Раздачи\†††\††† - 2012 - EP ††\04 - †rophy.flac Extracted successfully Conclusion: this track is CDDA with probability 100% Tempfile successfully deleted.
    5 -===- D:\!Torrent\Мои Раздачи\†††\††† - 2012 - EP ††\05 - 1987.flac Extracted successfully Conclusion: this track is CDDA with probability 100% Tempfile successfully deleted.
    Finished at: воскресенье, 16. 03. 2014. - 14:34.23 (operation time: 0:01.17)

    2014 - †††

    Страна-производитель диска: Japan
    Издатель (лейбл): Triple Vision Entertament
    Номер по каталогу: TRVE-0100
    Аудиокодек: FLAC (*.flac)
    Тип рипа: image+.cue
    Продолжительность: 00:56:23
    Источник (релизер): CD из личной коллекции
    Треклист:
    01. †his Is A †rick [3:06]
    02. †elepa†hy [3:34]
    03. Bi†ches Brew [3:28]
    04. †hholyghs† [4:26]
    05. †rophy [3:55]
    06. †he Epilogue [3:42]
    07. Bermuda Locke† [3:35]
    08. Fron†ier [4:01]
    09. Nine†een Nine†y Four [4:16]
    10. Op†ion [4:24]
    11. Nine†een Eigh†y Seven [3:11]
    12. Blk S†allion [3:06]
    13. † [2:52]
    14. Prurien† [4:06]
    15. Dea†h Bell [4:13]

    Отчёт EAC

    Exact Audio Copy V1.0 beta 3 from 29. August 2011
    Отчёт EAC об извлечении, выполненном 16. марта 2014, 14:04
    ††† / †††
    Дисковод: ASUS BW-12B1ST Adapter: 3 ID: 0
    Режим чтения : ДостоверностьИспользование точного потока : ДаОтключение кэша аудио : ДаИспользование указателей C2 : Нет
    Коррекция смещения при чтении : 6Способность читать области Lead-in и Lead-out : НетЗаполнение пропущенных сэмплов тишиной : ДаУдаление блоков с тишиной в начале и конце : НетПри вычислениях CRC использовались нулевые сэмплы : ДаИнтерфейс : Встроенный Win32-интерфейс для Win NT/2000
    Выходной формат : Внутренние WAV-операцииФормат сэмплов : 44.100 Гц; 16 бит; стерео
    TOC извлечённого CD
    Трек | Старт | Длительность | Начальный сектор | Конечный сектор --------------------------------------------------------------------- 1 | 0:00.00 | 3:06.39 | 0 | 13988 2 | 3:06.39 | 3:34.69 | 13989 | 30107 3 | 6:41.33 | 3:28.70 | 30108 | 45777 4 | 10:10.28 | 4:26.07 | 45778 | 65734 5 | 14:36.35 | 3:53.54 | 65735 | 83263 6 | 18:30.14 | 3:55.56 | 83264 | 100944 7 | 22:25.70 | 3:42.34 | 100945 | 117628 8 | 26:08.29 | 4:01.36 | 117629 | 135739 9 | 30:09.65 | 4:16.74 | 135740 | 155013 10 | 34:26.64 | 4:24.53 | 155014 | 174866 11 | 38:51.42 | 3:11.69 | 174867 | 189260 12 | 42:03.36 | 3:06.53 | 189261 | 203263 13 | 45:10.14 | 2:52.61 | 203264 | 216224 14 | 48:03.00 | 4:06.59 | 216225 | 234733 15 | 52:09.59 | 4:13.49 | 234734 | 253757
    Характеристики диапазона извлечения и сообщения об ошибках
    Выбранный диапазон
    Имя файла D:\EAC\††† - 2014 - ††† (Triple Vision Entertament - TRVE-0100)\††† - 2014 - †††.wav
    Пиковый уровень 100.0 % Скорость извлечения 7.3 X Качество диапазона 99.9 % CRC теста 6B6C8691 CRC копии 6B6C8691 Копирование... OK
    Ошибок не произошло
    AccurateRip: сводка
    Трек 1 отсутствует в базе данныхТрек 2 отсутствует в базе данныхТрек 3 отсутствует в базе данныхТрек 4 отсутствует в базе данныхТрек 5 отсутствует в базе данныхТрек 6 отсутствует в базе данныхТрек 7 отсутствует в базе данныхТрек 8 отсутствует в базе данныхТрек 9 отсутствует в базе данныхТрек 10 отсутствует в базе данныхТрек 11 отсутствует в базе данныхТрек 12 отсутствует в базе данныхТрек 13 отсутствует в базе данныхТрек 14 отсутствует в базе данныхТрек 15 отсутствует в базе данных
    Ни одного трека нет в базе AccurateRip
    Конец отчёта
    ==== Контрольная сумма отчёта B2E3594DF2C6652E465738D55EA4BD5C2A192ED49F8BEA107C5684ADB1A2D860 ====
    †††
    Скачать .torrent

    Скачать торрент-файл бесплатно и на максимальной скорости!

    Как скачивать? · Что такое торрент? · Рейтинг и ограничения

    !ВНИМАНИЕ!
    Сайт не распространяет и не хранит электронные версии произведений, а занимается лишь лишь предоставлением доступа к создаваемому пользователями каталогу ссылок на торрент-файлы, которые содержат только списки хеш-сумм, убедительная просьба с жалобами обращаться напрямую к пользователю. Файлы для обмена на трекере предоставлены пользователями сайта, и администрация не несёт ответственности за их содержание. Просьба не заливать файлы, защищенные авторскими правами, а также файлы нелегального содержания!

    [Профиль] [ЛС]
    Показать сообщения:    
    Ответить на тему

    Текущее время: Сегодня, в 10:59

    Часовой пояс: GMT + 2



    Вы не можете начинать темы
    Вы не можете отвечать на сообщения
    Вы не можете редактировать свои сообщения
    Вы не можете удалять свои сообщения
    Вы не можете голосовать в опросах
    Вы не можете прикреплять файлы к сообщениям
    Вы не можете скачивать файлы