BitTorrentTracker PerecTracker.org
BitTorrentTracker PerecTracker.org
    
Регистрация  ·  Вход
 
 · 
Забыли пароль?

  • Одиннадцать, Двенадцать, Тринадцать друзей Оушена / 11, 12, 13 друзей Оушена / Ocean's Eleven, Twelve, Thirteen (Стивен Содерберг / Steven Soderbergh) [2001, 2004, 2007, США, триллер, криминал, HDRip] AVO (Гаврилов)

    Ответить на тему
     
    Автор Сообщение

    rechyn

    Создавать темы 16-Июл-2016 15:16

           

    [Цитировать]

    Одиннадцать друзей Оушена / 11 друзей Оушена / Ocean's ElevenСтрана: США
    Жанр: триллер, криминал
    Год выпуска: 2001
    Продолжительность: 01:56:34
    Перевод: Авторский (одноголосый закадровый) Андрей Гаврилов
    Cубтитры: нет
    Режиссер: Стивен Содерберг / Steven Soderbergh
    В ролях: Джордж Клуни, Брэд Питт, Мэтт Дэймон, Энди Гарсиа, Джулия Робертс, Берни Мак, Эллиотт Гулд
    Описание: После выхода из тюрьмы вора Дэнни Оушена не проходит и 24 часов, а он уже планирует организовать самое сложное ограбление казино в истории. Он хочет украсть 160 млн. американских долларов из трех самых преуспевающих казино Лас-Вегаса. Все эти казино принадлежат элегантному и в то же время жестокому дельцу Терри Бенедикту, который только и мечтает о том, как встретится с бывшей женой Дэнни Оушена — Тесс. Возможно это только совпадение? А может быть это повод?
    Всего за одну ночь Дэнни подбирает команду из одиннадцати «специалистов», способных совершить эту дерзкую кражу. В команде Оушена оказываются первоклассный карточный шулер, молодой искусный вор-карманник и гениальный разрушитель. Чтобы совершить этот безумный и сложный грабеж Оушену придется рисковать своей жизнью…

    Качество видео: НDRip
    Формат видео: AVI
    Видео кодек: XviD
    Аудио кодек: AC3
    Видео: 720x304 (2.37:1), 23.976 fps, XviD build 50 ~2228 kbps avg, 0.42 bit/pixel
    Аудио: 48 kHz, AC3 Dolby Digital, 3/2 (L,C,R,l,r) + LFE ch, ~448 kbps

    MediaInfo

    Полное имя : Одиннадцать друзей Оушена.avi
    Формат : AVI
    Формат/Информация : Audio Video Interleave
    Профиль формата : OpenDML
    Размер файла : 2,19 Гбайт
    Продолжительность : 1 ч. 56 м.
    Общий поток : 2684 Кбит/сек
    Программа кодирования : VirtualDubMod 1.5.10.3 | www.virtualdub-fr.org || (build 2550/release)
    Библиотека кодирования : VirtualDubMod build 2550/release
    Видео
    Идентификатор : 0
    Формат : MPEG-4 Visual
    Профиль формата : Advanced Simple@L5
    Параметр BVOP формата : 1
    Параметр QPel формата : Нет
    Параметр GMC формата : Без точки перехода
    Параметр матрицы формата : Выборочная
    Идентификатор кодека : XVID
    Идентификатор кодека/Подсказка : XviD
    Продолжительность : 1 ч. 56 м.
    Битрейт : 2224 Кбит/сек
    Ширина : 720 пикселей
    Высота : 304 пикселя
    Соотношение сторон : 2,35:1
    Частота кадров : 23,976 кадра/сек
    Цветовое пространство : YUV
    Субдискретизация насыщенности : 4:2:0
    Битовая глубина : 8 бит
    Тип развёртки : Прогрессивная
    Метод сжатия : С потерями
    Бит/(Пиксели*Кадры) : 0.424
    Размер потока : 1,81 Гбайт (83%)
    Библиотека кодирования : XviD 1.2.1 (UTC 2008-12-04)
    Аудио
    Идентификатор : 1
    Формат : AC-3
    Формат/Информация : Audio Coding 3
    Расширение режима : CM (complete main)
    Параметр Endianness формата : Big
    Идентификатор кодека : 2000
    Продолжительность : 1 ч. 56 м.
    Вид битрейта : Постоянный
    Битрейт : 448 Кбит/сек
    Каналы : 6 каналов
    Расположение каналов : Front: L C R, Side: L R, LFE
    Частота : 48,0 КГц
    Метод сжатия : С потерями
    Размер потока : 374 Мбайт (17%)
    Выравнивание : Разделение по промежуткам
    Продолжительность промежутка : 42 мс. (1,00 видеокадр)
    Время предзагрузки промежутка : 500 мс.

    Скриншоты

    --Двенадцать друзей Оушена / 12 друзей Оушена / Ocean's TwelveСтрана: США
    Жанр: триллер, криминал
    Год выпуска: 2004
    Продолжительность: 02:05:18
    Перевод: Авторский (одноголосый закадровый) Андрей Гаврилов
    Cубтитры: нет
    Режиссер: Стивен Содерберг / Steven Soderbergh
    В ролях: Брэд Питт, Кэтрин Зета-Джонс, Джордж Клуни, Эд Кросс, Джулия Робертс, Мэт Дэймон, Дон Тиффани, Энн Жак, Дэвид Сонтэг, Ларри Сонтэг, Энди Гарсиа
    Описание: И снова гангстер Денни Оушен собирает свою банду профессиональных грабителей и мошенников, в которой появились и новые лица. На этот раз они задумали провернуть три ограбления в крупнейших европейских столицах. Возможно, для этого банде придется разделиться на три группы.
    Тем временем владелец казино Терри Бенедикт, которого Оушен со своими приятелями обчистил в Лас-Вегасе, жаждет мести и буквально висит у них на хвосте… Он зол и пытается настигнуть банду, за которой также охотятся агенты Европола и таинственный французский конкурент по имени Диннер Джекет…

    Качество видео: НDRip
    Формат видео: AVI
    Видео кодек: XviD
    Аудио кодек: AC3
    Видео: 720x304 (2.37:1), 23.976 fps, XviD build 50 ~2027 kbps avg, 0.39 bit/pixel
    Аудио: 48 kHz, AC3 Dolby Digital, 3/2 (L,C,R,l,r) + LFE ch, ~448 kbps

    MediaInfo

    Полное имя : Двеннадцать друзей Оушена.avi
    Формат : AVI
    Формат/Информация : Audio Video Interleave
    Профиль формата : OpenDML
    Размер файла : 2,17 Гбайт
    Продолжительность : 2 ч. 5 м.
    Общий поток : 2482 Кбит/сек
    Программа кодирования : VirtualDubMod 1.5.10.3 | www.virtualdub-fr.org || (build 2550/release)
    Библиотека кодирования : VirtualDubMod build 2550/release
    Видео
    Идентификатор : 0
    Формат : MPEG-4 Visual
    Профиль формата : Advanced Simple@L5
    Параметр BVOP формата : 1
    Параметр QPel формата : Нет
    Параметр GMC формата : Без точки перехода
    Параметр матрицы формата : Выборочная
    Идентификатор кодека : XVID
    Идентификатор кодека/Подсказка : XviD
    Продолжительность : 2 ч. 5 м.
    Битрейт : 2022 Кбит/сек
    Ширина : 720 пикселей
    Высота : 304 пикселя
    Соотношение сторон : 2,35:1
    Частота кадров : 23,976 кадра/сек
    Цветовое пространство : YUV
    Субдискретизация насыщенности : 4:2:0
    Битовая глубина : 8 бит
    Тип развёртки : Прогрессивная
    Метод сжатия : С потерями
    Бит/(Пиксели*Кадры) : 0.385
    Размер потока : 1,77 Гбайт (81%)
    Библиотека кодирования : XviD 1.2.1 (UTC 2008-12-04)
    Аудио
    Идентификатор : 1
    Формат : AC-3
    Формат/Информация : Audio Coding 3
    Расширение режима : CM (complete main)
    Параметр Endianness формата : Big
    Идентификатор кодека : 2000
    Продолжительность : 2 ч. 5 м.
    Вид битрейта : Постоянный
    Битрейт : 448 Кбит/сек
    Каналы : 6 каналов
    Расположение каналов : Front: L C R, Side: L R, LFE
    Частота : 48,0 КГц
    Метод сжатия : С потерями
    Размер потока : 401 Мбайт (18%)
    Выравнивание : Разделение по промежуткам
    Продолжительность промежутка : 42 мс. (1,00 видеокадр)
    Время предзагрузки промежутка : 500 мс.

    Скриншоты

    --Тринадцать друзей Оушена / 13 друзей Оушена / Ocean's ThirteenСтрана: США
    Жанр: триллер, криминал
    Год выпуска: 2007
    Продолжительность: 02:02:09
    Перевод: Авторский (одноголосый закадровый) Андрей Гаврилов
    Cубтитры: нет
    Режиссер: Стивен Содерберг / Steven Soderbergh
    В ролях: Джордж Клуни, Брэд Питт, Мэтт Деймон, Эллен Баркин, Аль Пачино, Берни Мак, Кейси Аффлек, Скотт Каан, Элиот Гулд, Дон Чидл, Эдди Джемисон, Энди Гарсия
    Описание: Новая глава о криминальных похождениях Дэнни Оушена и его команды талантливейших мошенников в Лас-Вегасе.
    У Дэнни Оушена и его команды могла быть только одна причина, по которой они готовы провернуть самое амбициозное и рискованное ограбление казино в их жизни, — ради защиты одного из «своих».
    Когда безжалостный владелец казино Уилли Бэнк подставляет одного из некогда одиннадцати друзей Оушена, — а именно Рубена Тишкоффа, — Дэнни и его верным соратникам ничего не остается, как вновь объединиться, чтобы проверить, по силам ли им все еще сорвать «банк».

    Качество видео: НDRip
    Формат видео: AVI
    Видео кодек: XviD
    Аудио кодек: AC3
    Видео: 720x304 (2.37:1), 23.976 fps, XviD build 50 ~2092 kbps avg, 0.40 bit/pixel
    Аудио: 48 kHz, AC3 Dolby Digital, 3/2 (L,C,R,l,r) + LFE ch, ~448 kbps

    MediaInfo

    Полное имя : Тринадцать друзей Оушена.avi
    Формат : AVI
    Формат/Информация : Audio Video Interleave
    Профиль формата : OpenDML
    Размер файла : 2,17 Гбайт
    Продолжительность : 2 ч. 2 м.
    Общий поток : 2548 Кбит/сек
    Программа кодирования : VirtualDubMod 1.5.10.3 | www.virtualdub-fr.org || (build 2550/release)
    Библиотека кодирования : VirtualDubMod build 2550/release
    Видео
    Идентификатор : 0
    Формат : MPEG-4 Visual
    Профиль формата : Advanced Simple@L5
    Параметр BVOP формата : 1
    Параметр QPel формата : Нет
    Параметр GMC формата : Без точки перехода
    Параметр матрицы формата : Выборочная
    Идентификатор кодека : XVID
    Идентификатор кодека/Подсказка : XviD
    Продолжительность : 2 ч. 2 м.
    Битрейт : 2088 Кбит/сек
    Ширина : 720 пикселей
    Высота : 304 пикселя
    Соотношение сторон : 2,35:1
    Частота кадров : 23,976 кадра/сек
    Цветовое пространство : YUV
    Субдискретизация насыщенности : 4:2:0
    Битовая глубина : 8 бит
    Тип развёртки : Прогрессивная
    Метод сжатия : С потерями
    Бит/(Пиксели*Кадры) : 0.398
    Размер потока : 1,78 Гбайт (82%)
    Библиотека кодирования : XviD 1.2.1 (UTC 2008-12-04)
    Аудио
    Идентификатор : 1
    Формат : AC-3
    Формат/Информация : Audio Coding 3
    Расширение режима : CM (complete main)
    Параметр Endianness формата : Big
    Идентификатор кодека : 2000
    Продолжительность : 2 ч. 2 м.
    Вид битрейта : Постоянный
    Битрейт : 448 Кбит/сек
    Каналы : 6 каналов
    Расположение каналов : Front: L C R, Side: L R, LFE
    Частота : 48,0 КГц
    Метод сжатия : С потерями
    Размер потока : 391 Мбайт (18%)
    Выравнивание : Разделение по промежуткам
    Продолжительность промежутка : 42 мс. (1,00 видеокадр)
    Время предзагрузки промежутка : 500 мс.

    Скриншоты

    Скачать .torrent

    Скачать торрент-файл бесплатно и на максимальной скорости!

    Как скачивать? · Что такое торрент? · Рейтинг и ограничения

    !ВНИМАНИЕ!
    Сайт не распространяет и не хранит электронные версии произведений, а занимается лишь лишь предоставлением доступа к создаваемому пользователями каталогу ссылок на торрент-файлы, которые содержат только списки хеш-сумм, убедительная просьба с жалобами обращаться напрямую к пользователю. Файлы для обмена на трекере предоставлены пользователями сайта, и администрация не несёт ответственности за их содержание. Просьба не заливать файлы, защищенные авторскими правами, а также файлы нелегального содержания!


    _________________
    [Профиль] [ЛС]
    Показать сообщения:    
    Ответить на тему

    Текущее время: Сегодня, в 16:13

    Часовой пояс: GMT + 2



    Вы не можете начинать темы
    Вы не можете отвечать на сообщения
    Вы не можете редактировать свои сообщения
    Вы не можете удалять свои сообщения
    Вы не можете голосовать в опросах
    Вы не можете прикреплять файлы к сообщениям
    Вы не можете скачивать файлы