BitTorrentTracker PerecTracker.org
BitTorrentTracker PerecTracker.org
    
Регистрация  ·  Вход
 
 · 
Забыли пароль?

  • Идём со мной / Blackway (Даниэль Альфредссон / Daniel Alfredsson) [2015, США, Триллер, драма, WEB-DLRip] [Локализованный видеоряд] DUB (iTunes)

    Ответить на тему
     
    Автор Сообщение

    Light

    Создавать темы 16-Июл-2016 03:58

           

    [Цитировать]

    Идём со мной / Blackway
    Слоган: «Они там, где закон не действует»
    Страна: США
    Жанр: Триллер, драма
    Год выпуска: 2015
    Продолжительность: 01:30:12
    Перевод: Профессиональный (дублированный) - (iTunes)
    Cубтитры: нет
    Оригинальная аудиодорожка: нет
    Режиссер: Даниэль Альфредссон / Daniel Alfredsson
    В ролях: Энтони Хопкинс, Джулия Стайлз, Александр Людвиг, Рэй Лиотта, Тэйлор Хиксон, Локлин Манро, Хэл Холбрук, Алекс Паунович, Стив Бачич, Крис Готье
    Описание: Джулия возвращается в родной город после учебы и становится жертвой сексуальных домогательств со стороны человека по имени Блэквэй. Когда девушка понимает, что полицейские порядки в городе не действуют, она обращается за помощью к друзьям: бывшему леснику и его приятелю. В процессе поиска они узнают, что Джулия — далеко не единственная жертва преступника. Услышав имя Блэквэя, жители городка испытывают страх и отказываются помогать, избегая общения. Джулия и её помощники остаются один на один с сумасшедшим преступником…
    Сэмпл: http://multi-up.com/1109804
    Качество видео: WEB-DLRip
    Исходник: [1dem.C0.MHoj.2016.D.WEB-DL.1080p]
    Формат видео: AVI
    Видео: 720x304 (2.37:1), 24.000 fps, XviD build 65 ~1922 kbps avg, 0.37 bit/pixel
    Аудио: 48 kHz, AC3 Dolby Digital, 3/2 (L,C,R,l,r) + LFE ch, ~384 kbps

    MediaInfo

    General
    Complete name : D:\Фильмы\Blackway_2015_Toriyal_Rutracker.avi
    Format : AVI
    Format/Info : Audio Video Interleave
    File size : 1.46 GiB
    Duration : 1h 30mn
    Overall bit rate : 2 316 Kbps
    Writing application : VirtualDubMod 1.5.10.3 | www.virtualdub-fr.org || (build 2550/release)
    Writing library : VirtualDubMod build 2550/release
    Video
    ID : 0
    Format : MPEG-4 Visual
    Format profile : Advanced Simple@L5
    Format settings, BVOP : 1
    Format settings, QPel : No
    Format settings, GMC : No warppoints
    Format settings, Matrix : Custom
    Codec ID : XVID
    Codec ID/Hint : XviD
    Duration : 1h 30mn
    Bit rate : 1 922 Kbps
    Width : 720 pixels
    Height : 304 pixels
    Display aspect ratio : 2.35:1
    Frame rate : 24.000 fps
    Color space : YUV
    Chroma subsampling : 4:2:0
    Bit depth : 8 bits
    Scan type : Progressive
    Compression mode : Lossy
    Bits/(Pixel*Frame) : 0.366
    Stream size : 1.21 GiB (83%)
    Writing library : XviD 65
    Audio
    ID : 1
    Format : AC-3
    Format/Info : Audio Coding 3
    Mode extension : CM (complete main)
    Format settings, Endianness : Big
    Codec ID : 2000
    Duration : 1h 30mn
    Bit rate mode : Constant
    Bit rate : 384 Kbps
    Channel(s) : 6 channels
    Channel positions : Front: L C R, Side: L R, LFE
    Sampling rate : 48.0 KHz
    Frame rate : 31.250 fps (1536 spf)
    Compression mode : Lossy
    Stream size : 248 MiB (17%)
    Alignment : Split accross interleaves
    Interleave, duration : 42 ms (1.00 video frame)
    Interleave, preload duratio : 500 ms

    Скриншоты

    Скачать .torrent

    Скачать торрент-файл бесплатно и на максимальной скорости!

    Как скачивать? · Что такое торрент? · Рейтинг и ограничения

    !ВНИМАНИЕ!
    Сайт не распространяет и не хранит электронные версии произведений, а занимается лишь лишь предоставлением доступа к создаваемому пользователями каталогу ссылок на торрент-файлы, которые содержат только списки хеш-сумм, убедительная просьба с жалобами обращаться напрямую к пользователю. Файлы для обмена на трекере предоставлены пользователями сайта, и администрация не несёт ответственности за их содержание. Просьба не заливать файлы, защищенные авторскими правами, а также файлы нелегального содержания!


    _________________
    [Профиль] [ЛС]
    Показать сообщения:    
    Ответить на тему

    Текущее время: Сегодня, в 16:44

    Часовой пояс: GMT + 2



    Вы не можете начинать темы
    Вы не можете отвечать на сообщения
    Вы не можете редактировать свои сообщения
    Вы не можете удалять свои сообщения
    Вы не можете голосовать в опросах
    Вы не можете прикреплять файлы к сообщениям
    Вы не можете скачивать файлы