BitTorrentTracker PerecTracker.org
BitTorrentTracker PerecTracker.org
    
Регистрация  ·  Вход
 
 · 
Забыли пароль?

  • Идём со мной / Blackway (Даниэль Альфредссон / Daniel Alfredsson) [2015, США, Триллер, драма, WEB-DLRip] [Локализованный видеоряд] Dub (iTunes)

    Ответить на тему
     
    Автор Сообщение

    Light

    Создавать темы 16-Июл-2016 03:58

           

    [Цитировать]

    Идём со мной / Blackway
    Страна: США
    Жанр: Триллер, драма
    Год выпуска: 2015
    Продолжительность: 01:30:12
    Перевод: Профессиональный (дублированный) iTunes
    Cубтитры: нет
    Режиссер: Даниэль Альфредссон / Daniel Alfredsson
    В ролях: Энтони Хопкинс, Джулия Стайлз, Александр Людвиг, Рэй Лиотта, Тэйлор Хиксон, Локлин Манро, Хэл Холбрук, Алекс Паунович, Стив Бачич, Крис Готье
    Описание: Джулия возвращается в родной город после учебы и становится жертвой сексуальных домогательств со стороны человека по имени Блэквэй. Когда девушка понимает, что полицейские порядки в городе не действуют, она обращается за помощью к друзьям: бывшему леснику и его приятелю. В процессе поиска они узнают, что Джулия — далеко не единственная жертва преступника. Услышав имя Блэквэя, жители городка испытывают страх и отказываются помогать, избегая общения. Джулия и её помощники остаются один на один с сумасшедшим преступником…
    Сэмпл: http://multi-up.com/1109852
    Релиз от Megapeer
    Локализованный видеоряд

    Качество видео: WEB-DLRip
    Формат видео: AVI
    Видео: 688x288 (2.39:1), 24 fps, XviD build 73 ~1021 kbps avg, 0.24 bit/pixel
    Аудио: 48 kHz, MPEG Layer 3, 2 ch, ~128.00 kbps avg

    MediaInfo

    ОбщееПолное имя : D:\загрузки\Blackway.2015.WEB-DLRip.745MB.aviФормат : AVIФормат/Информация : Audio Video InterleaveРазмер файла : 745 МбайтПродолжительность : 1 ч. 30 м.Общий поток : 1155 Кбит/сек
    ВидеоИдентификатор : 0Формат : MPEG-4 VisualПрофиль формата : Advanced Simple@L5Параметр BVOP формата : 1Параметр QPel формата : НетПараметр GMC формата : Без точки переходаПараметр матрицы формата : ВыборочнаяИдентификатор кодека : XVIDИдентификатор кодека/Подсказка : XviDПродолжительность : 1 ч. 30 м.Битрейт : 1021 Кбит/секШирина : 688 пикселейВысота : 288 пикселейСоотношение сторон : 2,40:1Частота кадров : 24,000 кадра/секЦветовое пространство : YUVСубдискретизация насыщенности : 4:2:0Битовая глубина : 8 битТип развёртки : ПрогрессивнаяМетод сжатия : С потерямиБит/(Пиксели*Кадры) : 0.215Размер потока : 659 Мбайт (88%)Библиотека кодирования : XviD 73
    АудиоИдентификатор : 1Формат : MPEG AudioВерсия формата : Version 1Профиль формата : Layer 3Режим : Joint stereoРасширение режима : MS StereoИдентификатор кодека : 55Идентификатор кодека/Подсказка : MP3Продолжительность : 1 ч. 30 м.Вид битрейта : ПостоянныйБитрейт : 128 Кбит/секКаналы : 2 каналаЧастота : 48,0 КГцМетод сжатия : С потерямиРазмер потока : 82,6 Мбайт (11%)Выравнивание : Соединение по промежуткамПродолжительность промежутка : 167 мс. (4,00 видеокадра)Время предзагрузки промежутка : 216 мс.Заголовок : iTunesБиблиотека кодирования : LAME3.99rНастройки программы : -m j -V 4 -q 2 -lowpass 17 -b 128

    Скриншоты

    Скачать .torrent

    Скачать торрент-файл бесплатно и на максимальной скорости!

    Как скачивать? · Что такое торрент? · Рейтинг и ограничения

    !ВНИМАНИЕ!
    Сайт не распространяет и не хранит электронные версии произведений, а занимается лишь лишь предоставлением доступа к создаваемому пользователями каталогу ссылок на торрент-файлы, которые содержат только списки хеш-сумм, убедительная просьба с жалобами обращаться напрямую к пользователю. Файлы для обмена на трекере предоставлены пользователями сайта, и администрация не несёт ответственности за их содержание. Просьба не заливать файлы, защищенные авторскими правами, а также файлы нелегального содержания!


    _________________
    [Профиль] [ЛС]
    Показать сообщения:    
    Ответить на тему

    Текущее время: Сегодня, в 04:15

    Часовой пояс: GMT + 2



    Вы не можете начинать темы
    Вы не можете отвечать на сообщения
    Вы не можете редактировать свои сообщения
    Вы не можете удалять свои сообщения
    Вы не можете голосовать в опросах
    Вы не можете прикреплять файлы к сообщениям
    Вы не можете скачивать файлы