BitTorrentTracker PerecTracker.org
BitTorrentTracker PerecTracker.org
    
Регистрация  ·  Вход
 
 · 
Забыли пароль?

  • Камера 213 / Cell 213 (Стефен Т. Кэй / Stephen T. Kay) [2011, Канада, ужасы, BDRip] Dub

    Ответить на тему
     
    Автор Сообщение

    Light

    Создавать темы 16-Июл-2016 03:58

           

    [Цитировать]

    Камера 213 / Cell 213
    Слоган: «'You're Next'»
    Страна: Канада
    Жанр: ужасы
    Год выпуска: 2011
    Продолжительность: 01:49:07
    Перевод: Профессиональный (дублированный) - [Лицензия BD EUR]
    Cубтитры: нет
    Оригинальная аудиодорожка: нет
    Режиссер: Стефен Т. Кэй / Stephen T. Kay
    В ролях: Брюс Гринвуд, Эрик Бальфур, Майкл Рукер, Дебора Валенте, Конрад Коутс, Мари-Жозе Колберн, Дарлен Кук, Мюррэй Фюрроу, Тамара Горски, Ротафорд Грэй, Даррен Хайнс, Вив Ликок
    Описание: История крутится вокруг самоуверенного адвоката, которого обвиняют в убийстве и бросают в страшную камеру 213, в которой, кажется, обитают силы более пугающие, чем любой самый жестокий надзиратель.
    Сэмпл: http://multi-up.com/1109880
    Качество видео: BDRip
    Исходник: [Blu-ray 1080p kinozal]
    Формат видео: AVI
    Видео: 720x304 (2.37:1), 23.976 fps, XviD build 65 ~1459 kbps avg, 0.28 bit/pixel
    Аудио: 48 kHz, AC3 Dolby Digital, 3/2 (L,C,R,l,r) + LFE ch, ~448 kbps

    MediaInfo

    General
    Complete name : D:\Фильмы\Cell 213_2011_Toriyal_Rutracker.avi
    Format : AVI
    Format/Info : Audio Video Interleave
    File size : 1.46 GiB
    Duration : 1h 49mn
    Overall bit rate : 1 917 Kbps
    Writing application : VirtualDubMod 1.5.10.3 | www.virtualdub-fr.org || (build 2550/release)
    Writing library : VirtualDubMod build 2550/release
    Video
    ID : 0
    Format : MPEG-4 Visual
    Format profile : Advanced Simple@L5
    Format settings, BVOP : 1
    Format settings, QPel : No
    Format settings, GMC : No warppoints
    Format settings, Matrix : Custom
    Codec ID : XVID
    Codec ID/Hint : XviD
    Duration : 1h 49mn
    Bit rate : 1 460 Kbps
    Width : 720 pixels
    Height : 304 pixels
    Display aspect ratio : 2.35:1
    Frame rate : 23.976 (23976/1000) fps
    Color space : YUV
    Chroma subsampling : 4:2:0
    Bit depth : 8 bits
    Scan type : Progressive
    Compression mode : Lossy
    Bits/(Pixel*Frame) : 0.278
    Stream size : 1.11 GiB (76%)
    Writing library : XviD 65
    Audio
    ID : 1
    Format : AC-3
    Format/Info : Audio Coding 3
    Mode extension : CM (complete main)
    Format settings, Endianness : Big
    Codec ID : 2000
    Duration : 1h 49mn
    Bit rate mode : Constant
    Bit rate : 448 Kbps
    Channel(s) : 6 channels
    Channel positions : Front: L C R, Side: L R, LFE
    Sampling rate : 48.0 KHz
    Frame rate : 31.250 fps (1536 spf)
    Compression mode : Lossy
    Stream size : 350 MiB (23%)
    Alignment : Split accross interleaves
    Interleave, duration : 42 ms (1.00 video frame)
    Interleave, preload duratio : 500 ms

    Скриншоты

    Скачать .torrent

    Скачать торрент-файл бесплатно и на максимальной скорости!

    Как скачивать? · Что такое торрент? · Рейтинг и ограничения

    !ВНИМАНИЕ!
    Сайт не распространяет и не хранит электронные версии произведений, а занимается лишь лишь предоставлением доступа к создаваемому пользователями каталогу ссылок на торрент-файлы, которые содержат только списки хеш-сумм, убедительная просьба с жалобами обращаться напрямую к пользователю. Файлы для обмена на трекере предоставлены пользователями сайта, и администрация не несёт ответственности за их содержание. Просьба не заливать файлы, защищенные авторскими правами, а также файлы нелегального содержания!


    _________________
    [Профиль] [ЛС]
    Показать сообщения:    
    Ответить на тему

    Текущее время: Сегодня, в 04:15

    Часовой пояс: GMT + 2



    Вы не можете начинать темы
    Вы не можете отвечать на сообщения
    Вы не можете редактировать свои сообщения
    Вы не можете удалять свои сообщения
    Вы не можете голосовать в опросах
    Вы не можете прикреплять файлы к сообщениям
    Вы не можете скачивать файлы