BitTorrentTracker PerecTracker.org
BitTorrentTracker PerecTracker.org
    
Регистрация  ·  Вход
 
 · 
Забыли пароль?

  • РЭД 2 / RED 2 (Дин Паризо / Dean Parisot) [2013, США, Франция, Канада, боевик, триллер, комедия, BDRip-AVC] [USA Transfer] Dub + AVO (А. Гаврилов) + Sub Rus, Eng + Original Eng

    Ответить на тему
     
    Автор Сообщение

    Light

    Создавать темы 15-Июл-2016 23:50

           

    [Цитировать]

    РЭД 2 / RED 2
    Страна: США, Франция, Канада
    Жанр: боевик, триллер, комедия
    Год выпуска: 2013
    Продолжительность: 01:55:48
    Перевод 1: Профессиональный (дублированный) Blu-Ray
    Перевод 2: Авторский (одноголосый закадровый) Гаврилов А.
    Оригинальная аудиодорожка: Английская
    Cубтитры: Русские (Форсированные, Полные), Английские (Full, SDH, SDH-Colored)--Режиссер: Дин Паризо / Dean Parisot--В ролях: Брюс Уиллис, Джон Малкович, Мэри-Луиз Паркер, Кэтрин Зета-Джонс, Ли Бён Хон, Энтони Хопкинс, Хелен Миррен, Йонг Кун Ли, Нил МакДонаф, Дэвид Тьюлис, Тим Пиготт-Смит, Гэррик Хэйгон, Эмма Хеминг, Бентли Калу, Ребекка Кролл, Бьянка Белланж...--Описание: Вышедший на пенсию тайный агент ЦРУ Фрэнк Мозес объединяется с командой старых друзей, элитных оперативников, с целью найти пропавшее оружие массового уничтожения. Чтобы его заполучить, придётся прорываться сквозь армии безжалостных наёмников, террористов и всегда жаждущих власти политиков.
    Миссия приводит Фрэнка и его разношёрстную команду вышедших на пенсию убийц в Париж, Лондон и Москву. В их арсенале есть только хитрость, старая сноровка и помощь друг друга, чтобы спасти мир и при этом самим остаться в живых.--Доп. информация: | | | Сэмпл |--Качество видео: BDRip-AVC
    Формат видео: MKV
    Видео: AVC, 1152x480 (2.40:1), 4030 kbps, 23.976 fps, 0.304 bit/pixel
    Аудио 1: AC3 Dolby Digital, 3/2 (L,C,R,l,r) + LFE ch, 48 kHz, 448 kbps
    Аудио 2: AC3 Dolby Digital, 3/2 (L,C,R,l,r) + LFE ch, 48 kHz, 448 kbps
    Аудио 3: AC3 Dolby Digital, 3/2 (L,C,R,l,r) + LFE ch, 48 kHz, 448 kbps
    Формат субтитров: softsub (SRT)
    Скриншоты

    Запасные скриншоты

    MediaInfo

    x264

    raw [info]: 1152x480p 1:1 @ 24000/1001 fps (cfr)
    x264 [info]: using SAR=1/1
    x264 [info]: using cpu capabilities: MMX2 SSE2Fast SSSE3 SSE4.2 AVX
    x264 [info]: profile High, level 4.1
    x264 [info]: frame I:1725 Avg QP:16.42 size: 99518
    x264 [info]: frame P:33218 Avg QP:18.12 size: 38587
    x264 [info]: frame B:131664 Avg QP:20.55 size: 15545
    x264 [info]: consecutive B-frames: 1.9% 1.5% 5.8% 13.6% 18.3% 46.8% 6.2% 1.4% 1.3% 1.0% 0.7% 0.5% 0.4% 0.4% 0.2%
    x264 [info]: mb I I16..4: 11.9% 70.4% 17.8%
    x264 [info]: mb P I16..4: 1.0% 17.4% 1.7% P16..4: 34.1% 22.2% 16.0% 0.6% 0.2% skip: 6.9%
    x264 [info]: mb B I16..4: 0.0% 2.6% 0.1% B16..8: 40.4% 11.9% 4.2% direct: 7.2% skip:33.5% L0:45.6% L1:42.6% BI:11.9%
    x264 [info]: 8x8 transform intra:86.5% inter:61.4%
    x264 [info]: coded y,uvDC,uvAC intra: 93.8% 93.8% 86.9% inter: 31.9% 29.2% 13.5%
    x264 [info]: i16 v,h,dc,p: 29% 13% 21% 37%
    x264 [info]: i8 v,h,dc,ddl,ddr,vr,hd,vl,hu: 10% 9% 13% 9% 12% 12% 12% 11% 12%
    x264 [info]: i4 v,h,dc,ddl,ddr,vr,hd,vl,hu: 10% 9% 4% 10% 15% 14% 14% 11% 13%
    x264 [info]: i8c dc,h,v,p: 56% 14% 13% 17%
    x264 [info]: Weighted P-Frames: Y:4.2% UV:2.3%
    x264 [info]: ref P L0: 46.5% 10.5% 18.3% 6.6% 5.6% 3.5% 3.2% 1.6% 1.6% 1.2% 1.3% 0.1% 0.0%
    x264 [info]: ref B L0: 69.4% 13.4% 6.5% 3.7% 2.4% 1.8% 1.3% 0.8% 0.5% 0.2%
    x264 [info]: ref B L1: 92.9% 7.1%
    x264 [info]: kb/s:4029.57
    General
    Unique ID : 223845410709314339077609393495049954539 (0xA8670ED525C2B2348395AD7959D6E4EB)
    Complete name : RED 2 (2013).mkv
    Format : Matroska
    Format version : Version 4 / Version 2
    File size : 4.35 GiB
    Duration : 1h 55mn
    Overall bit rate : 5 377 Kbps
    Movie name : РЭД 2 / RED 2 (2013)
    Encoded date : UTC 2016-07-11 06:42:36
    Writing application : mkvmerge v8.1.0 ('Psychedelic Postcard') 64bit
    Writing library : libebml v1.3.1 + libmatroska v1.4.2
    Cover : Yes
    Attachments : cover.jpg
    Video
    ID : 1
    Format : AVC
    Format/Info : Advanced Video Codec
    Format profile : High@L4.1
    Format settings, CABAC : Yes
    Format settings, ReFrames : 11 frames
    Codec ID : V_MPEG4/ISO/AVC
    Duration : 1h 55mn
    Bit rate : 4 030 Kbps
    Width : 1 152 pixels
    Height : 480 pixels
    Display aspect ratio : 2.40:1
    Frame rate mode : Constant
    Frame rate : 23.976 (24000/1001) fps
    Color space : YUV
    Chroma subsampling : 4:2:0
    Bit depth : 8 bits
    Scan type : Progressive
    Bits/(Pixel*Frame) : 0.304
    Stream size : 3.26 GiB (75%)
    Title : РЭД 2 / RED 2 (2013) By optik.1557
    Writing library : x264 core 148 r2705kMod 3f5ed56
    Encoding settings : cabac=1 / ref=11 / deblock=1:-2:-1 / analyse=0x3:0x133 / me=umh / subme=10 / psy=1 / fade_compensate=0.00 / psy_rd=1.03:0.05 / mixed_ref=1 / me_range=32 / chroma_me=1 / trellis=2 / 8x8dct=1 / cqm=0 / deadzone=21,11 / fast_pskip=0 / chroma_qp_offset=-3 / threads=6 / lookahead_threads=1 / sliced_threads=0 / nr=0 / decimate=1 / interlaced=0 / bluray_compat=0 / constrained_intra=0 / fgo=0 / bframes=14 / b_pyramid=2 / b_adapt=2 / b_bias=0 / direct=1 / weightb=1 / open_gop=0 / weightp=2 / keyint=250 / keyint_min=23 / scenecut=40 / intra_refresh=0 / rc_lookahead=60 / rc=crf / mbtree=0 / crf=17.7000 / qcomp=0.60 / qpmin=0 / qpmax=69 / qpstep=4 / vbv_maxrate=50000 / vbv_bufsize=62500 / crf_max=0.0 / nal_hrd=none / filler=0 / ip_ratio=1.40 / pb_ratio=1.30 / aq=2:0.90
    Language : English
    Default : Yes
    Forced : No
    Audio #1
    ID : 2
    Format : AC-3
    Format/Info : Audio Coding 3
    Mode extension : CM (complete main)
    Format settings, Endianness : Big
    Codec ID : A_AC3
    Duration : 1h 55mn
    Bit rate mode : Constant
    Bit rate : 448 Kbps
    Channel(s) : 6 channels
    Channel positions : Front: L C R, Side: L R, LFE
    Sampling rate : 48.0 KHz
    Frame rate : 31.250 fps (1536 spf)
    Compression mode : Lossy
    Stream size : 371 MiB (8%)
    Title : Дубляж. Blu-Ray
    Language : Russian
    Default : Yes
    Forced : No
    Audio #2
    ID : 3
    Format : AC-3
    Format/Info : Audio Coding 3
    Mode extension : CM (complete main)
    Format settings, Endianness : Big
    Codec ID : A_AC3
    Duration : 1h 55mn
    Bit rate mode : Constant
    Bit rate : 448 Kbps
    Channel(s) : 6 channels
    Channel positions : Front: L C R, Side: L R, LFE
    Sampling rate : 48.0 KHz
    Frame rate : 31.250 fps (1536 spf)
    Compression mode : Lossy
    Stream size : 371 MiB (8%)
    Title : AVO. Гаврилов Андрей
    Language : Russian
    Default : No
    Forced : No
    Audio #3
    ID : 4
    Format : AC-3
    Format/Info : Audio Coding 3
    Mode extension : CM (complete main)
    Format settings, Endianness : Big
    Codec ID : A_AC3
    Duration : 1h 55mn
    Bit rate mode : Constant
    Bit rate : 448 Kbps
    Channel(s) : 6 channels
    Channel positions : Front: L C R, Side: L R, LFE
    Sampling rate : 48.0 KHz
    Frame rate : 31.250 fps (1536 spf)
    Compression mode : Lossy
    Stream size : 371 MiB (8%)
    Title : Original
    Language : English
    Default : No
    Forced : No
    Text #1
    ID : 5
    Format : UTF-8
    Codec ID : S_TEXT/UTF8
    Codec ID/Info : UTF-8 Plain Text
    Duration : 1h 22mn
    Bit rate : 0 bps
    Count of elements : 15
    Stream size : 514 Bytes (0%)
    Title : Форсированные
    Language : Russian
    Default : Yes
    Forced : No
    Text #2
    ID : 6
    Format : UTF-8
    Codec ID : S_TEXT/UTF8
    Codec ID/Info : UTF-8 Plain Text
    Duration : 1h 45mn
    Bit rate : 91 bps
    Count of elements : 1456
    Stream size : 70.6 KiB (0%)
    Language : Russian
    Default : No
    Forced : No
    Text #3
    ID : 7
    Format : UTF-8
    Codec ID : S_TEXT/UTF8
    Codec ID/Info : UTF-8 Plain Text
    Duration : 1h 45mn
    Bit rate : 52 bps
    Count of elements : 1493
    Stream size : 40.4 KiB (0%)
    Language : English
    Default : No
    Forced : No
    Text #4
    ID : 8
    Format : UTF-8
    Codec ID : S_TEXT/UTF8
    Codec ID/Info : UTF-8 Plain Text
    Duration : 1h 45mn
    Bit rate : 58 bps
    Count of elements : 1544
    Stream size : 45.4 KiB (0%)
    Title : SDH
    Language : English
    Default : No
    Forced : No
    Text #5
    ID : 9
    Format : UTF-8
    Codec ID : S_TEXT/UTF8
    Codec ID/Info : UTF-8 Plain Text
    Duration : 1h 45mn
    Bit rate : 71 bps
    Count of elements : 1544
    Stream size : 55.1 KiB (0%)
    Title : SDH Colored
    Language : English
    Default : No
    Forced : No
    Menu
    00:00:00.000 : en:Chapter 00
    00:08:16.412 : en:Chapter 01
    00:14:47.511 : en:Chapter 02
    00:21:15.816 : en:Chapter 03
    00:28:18.655 : en:Chapter 04
    00:39:36.207 : en:Chapter 05
    00:47:09.743 : en:Chapter 06
    00:54:17.879 : en:Chapter 07
    01:00:06.644 : en:Chapter 08
    01:07:32.339 : en:Chapter 09
    01:11:34.123 : en:Chapter 10
    01:18:38.088 : en:Chapter 11
    01:23:01.601 : en:Chapter 12
    01:27:46.386 : en:Chapter 13
    01:35:37.773 : en:Chapter 14
    01:41:29.625 : en:Chapter 15
    01:45:09.344 : en:Chapter 16
    01:46:45.232 : en:Chapter 17
    Скачать .torrent

    Скачать торрент-файл бесплатно и на максимальной скорости!

    Как скачивать? · Что такое торрент? · Рейтинг и ограничения

    !ВНИМАНИЕ!
    Сайт не распространяет и не хранит электронные версии произведений, а занимается лишь лишь предоставлением доступа к создаваемому пользователями каталогу ссылок на торрент-файлы, которые содержат только списки хеш-сумм, убедительная просьба с жалобами обращаться напрямую к пользователю. Файлы для обмена на трекере предоставлены пользователями сайта, и администрация не несёт ответственности за их содержание. Просьба не заливать файлы, защищенные авторскими правами, а также файлы нелегального содержания!


    _________________
    [Профиль] [ЛС]
    Показать сообщения:    
    Ответить на тему

    Текущее время: Сегодня, в 18:25

    Часовой пояс: GMT + 2



    Вы не можете начинать темы
    Вы не можете отвечать на сообщения
    Вы не можете редактировать свои сообщения
    Вы не можете удалять свои сообщения
    Вы не можете голосовать в опросах
    Вы не можете прикреплять файлы к сообщениям
    Вы не можете скачивать файлы