Register  ·  Log in
Forgot password?

  • Из тьмы / Первобытный страх / The Hallow (Корин Харди / Corin Hardy) [2015, Великобритания, США, Ирландия, ужасы, BDRip] Dub (Itunes)

    Reply to topic
    Author Message


    Post 16-Jul-2016 00:50



    Из тьмы / The Hallow
    Слоган: «Придет первобытный страх»
    Страна: Великобритания, США, Ирландия
    Жанр: Ужасы
    Год выпуска: 2015
    Продолжительность: 01:36:42
    Перевод: Профессиональный (дублированный) - (iTunes)
    Cубтитры: нет
    Оригинальная аудиодорожка: нет
    Режиссер: Корин Харди / Corin Hardy
    В ролях: Джозеф Моул, Бояна Новакович, Майкл МакЭлхаттон, Майкл Смайли, Гари Лайдон, Стюарт Грэхэм, Конор Крэйг Стефенс, Joss Wyre, Шон Тайрел, James Meryk
    Описание: Семейная пара переезжает в новый дом на краю леса, окутанного жуткими легендами. Его первобытные существа пытаются забрать у родителей младенца.
    Качество видео: BDRip
    Исходник: [The.Hallow.2015.BDREMUX.1080p.ExKinoRay]
    Формат видео: AVI
    Видео: 720x304 (2.37:1), 24.000 fps, XviD build 65 ~1767 kbps avg, 0.34 bit/pixel
    Аудио: 48 kHz, AC3 Dolby Digital, 3/2 (L,C,R,l,r) + LFE ch, ~384 kbps


    Complete name : D:\Фильмы\The Hallow_2015_Toriyal_Rutracker.avi
    Format : AVI
    Format/Info : Audio Video Interleave
    File size : 1.46 GiB
    Duration : 1h 36mn
    Overall bit rate : 2 160 Kbps
    Writing application : VirtualDubMod | || (build 2550/release)
    Writing library : VirtualDubMod build 2550/release
    ID : 0
    Format : MPEG-4 Visual
    Format profile : Advanced Simple@L5
    Format settings, BVOP : 1
    Format settings, QPel : No
    Format settings, GMC : No warppoints
    Format settings, Matrix : Custom
    Codec ID : XVID
    Codec ID/Hint : XviD
    Duration : 1h 36mn
    Bit rate : 1 767 Kbps
    Width : 720 pixels
    Height : 304 pixels
    Display aspect ratio : 2.35:1
    Frame rate : 24.000 fps
    Color space : YUV
    Chroma subsampling : 4:2:0
    Bit depth : 8 bits
    Scan type : Progressive
    Compression mode : Lossy
    Bits/(Pixel*Frame) : 0.336
    Stream size : 1.19 GiB (82%)
    Writing library : XviD 65
    ID : 1
    Format : AC-3
    Format/Info : Audio Coding 3
    Mode extension : CM (complete main)
    Format settings, Endianness : Big
    Codec ID : 2000
    Duration : 1h 36mn
    Bit rate mode : Constant
    Bit rate : 384 Kbps
    Channel(s) : 6 channels
    Channel positions : Front: L C R, Side: L R, LFE
    Sampling rate : 48.0 KHz
    Frame rate : 31.250 fps (1536 spf)
    Compression mode : Lossy
    Stream size : 265 MiB (18%)
    Alignment : Split accross interleaves
    Interleave, duration : 42 ms (1.00 video frame)
    Interleave, preload duratio : 500 ms


    Download .torrent

    Download free and at maximum speed!

    How to Download? · What is a torrent? · Ratings and Limitations

    The site does not extend and does not store electronic(digital) versions of products, and only gives access to a reference catalogue created by users on torrent-files which contain only lists of the hash-sums, the earnest entreaty, with complaints(abuse) to access directly to the user. Files for an exchange on tracker are given by users of a site, and the administration does not bear the responsibility for their maintenance. The request to not fill in the files protected by copyrights, and also files of the illegal maintenance!

    [Profile] [PM]
    Display posts from previous:    
    Reply to topic

    The time now is: Today 22:47

    All times are GMT + 3 Hours

    You cannot post new topics in this forum
    You cannot reply to topics in this forum
    You cannot edit your posts in this forum
    You cannot delete your posts in this forum
    You cannot vote in polls in this forum
    You cannot attach files in this forum
    You cannot download files in this forum