BitTorrentTracker PerecTracker.org
BitTorrentTracker PerecTracker.org
    
Регистрация  ·  Вход
 
 · 
Забыли пароль?

  • Страсть / Passion (Брайан Де Пальма / Brian De Palma) [2012, Германия, Франция, триллер, драма, криминал, детектив, BDRip-AVC] MVO + Sub Rus + Original Eng

    Ответить на тему
     
    Автор Сообщение

    Light

    Создавать темы 15-Июл-2016 23:50

           

    [Цитировать]

    Страсть / Passion
    Страна: Германия, Франция
    Жанр: триллер, драма, криминал, детектив
    Год выпуска: 2012
    Продолжительность: 01:41:03-Перевод: Профессиональный (многоголосый закадровый)
    Cубтитры: русские
    Оригинальная аудио дорожка: английская-Режиссер: Брайан Де Пальма / Brian De Palma-В ролях: Рэйчел МакАдамс, Нуми Рапас, Каролине Херфурт, Пол Андерсон, Райнер Бок, Беньямин Задлер, Майкл Рочопф, Макс Урлахер, Доминик Рааке, Тристан В. Пюттер-Описание: История двух девушек, топ-менеджеров крупной компании. Они крутили роман с одним и тем же сотрудником, причем обе одновременно уважают и ненавидят друг друга. В один прекрасный день одна сильно оскорбляет другую перед всеми коллегами… девушка решает отомстить.-Дополнительная информация: навигация сохранена с BDRemux-Сэмпл: http://sendfile.su/1249385-Качество видео: BDRip-AVC
    Качество: BDRip (исходник: Passion.2012.BDRemux.1080p.Кинозал )
    Формат видео: MKV
    Видео: MPEG4/AVC, 1018x552, 1.85:1, 23.976 (24000/1001) FPS, 2657 kb/s
    Аудио 1: AC-3, 48.0 kHz, 192 kb/s, 2 channels | закадровый
    Аудио 2: AC-3, 48.0 kHz, 192 kb/s, 2 channels | оригинал
    Формат субтитров: softsub (SRT)

    MediaInfo

    Формат : Matroska
    Версия формата : Version 2
    Размер файла : 2,14 Гбайт
    Продолжительность : 1 ч. 41 м.
    Общий поток : 3029 Кбит/сек
    Дата кодирования : UTC 2016-07-11 09:37:54
    Программа кодирования : mkvmerge v7.6.0 ('Garden of Dreams') 32bit built on Feb 11 2015 00:18:47
    Библиотека кодирования : libebml v1.3.1 + libmatroska v1.4.2
    Видео
    Идентификатор : 1
    Формат : AVC
    Формат/Информация : Advanced Video Codec
    Профиль формата : High@L4.1
    Параметр CABAC формата : Да
    Параметр ReFrames формата : 13 кадров
    Идентификатор кодека : V_MPEG4/ISO/AVC
    Продолжительность : 1 ч. 41 м.
    Битрейт : 2657 Кбит/сек
    Ширина : 1018 пикселей
    Высота : 552 пикселя
    Соотношение сторон : 1,85:1
    Режим частоты кадров : Постоянный
    Частота кадров : 23,976 (24000/1001) кадра/сек
    Цветовое пространство : YUV
    Субдискретизация насыщенности : 4:2:0
    Битовая глубина : 8 бит
    Тип развёртки : Прогрессивная
    Бит/(Пиксели*Кадры) : 0.197
    Размер потока : 1,82 Гбайт (85%)
    Библиотека кодирования : x264 core 148 r2638 7599210
    Настройки программы : cabac=1 / ref=13 / deblock=1:-3:-3 / analyse=0x3:0x113 / me=umh / subme=9 / psy=1 / psy_rd=1.00:0.00 / mixed_ref=1 / me_range=32 / chroma_me=1 / trellis=2 / 8x8dct=1 / cqm=0 / deadzone=21,11 / fast_pskip=0 / chroma_qp_offset=-2 / threads=6 / lookahead_threads=1 / sliced_threads=0 / nr=0 / decimate=1 / interlaced=0 / bluray_compat=0 / constrained_intra=0 / bframes=14 / b_pyramid=2 / b_adapt=2 / b_bias=0 / direct=3 / weightb=1 / open_gop=0 / weightp=2 / keyint=240 / keyint_min=23 / scenecut=40 / intra_refresh=0 / rc_lookahead=40 / rc=2pass / mbtree=0 / bitrate=2657 / ratetol=1.0 / qcomp=0.60 / qpmin=0 / qpmax=69 / qpstep=4 / cplxblur=20.0 / qblur=0.5 / vbv_maxrate=62500 / vbv_bufsize=78125 / nal_hrd=none / filler=0 / ip_ratio=1.40 / pb_ratio=1.30 / aq=2:1.00
    Default : Да
    Forced : Нет
    Statistics Tags Issue : mkvmerge v8.5.2 ('Crosses') 32bit 2016-07-10 20:29:35 / mkvmerge v7.6.0 ('Garden of Dreams') 32bit built on Feb 11 2015 00:18:47 2016-07-11 09:37:54
    FromStats_BitRate : 2643129
    FromStats_Duration : 01:41:03.015000000
    FromStats_FrameCount : 145367
    FromStats_StreamSize : 2003166786
    Аудио #1
    Идентификатор : 2
    Формат : AC-3
    Формат/Информация : Audio Coding 3
    Профиль формата : Dolby Digital
    Расширение режима : CM (complete main)
    Параметр Endianness формата : Big
    Идентификатор кодека : A_AC3
    Продолжительность : 1 ч. 41 м.
    Вид битрейта : Постоянный
    Битрейт : 192 Кбит/сек
    Каналы : 2 канала
    Расположение каналов : Front: L R
    Частота : 48,0 КГц
    Частота кадров : 31,250 кадров/сек (1536 spf)
    Метод сжатия : С потерями
    Размер потока : 139 Мбайт (6%)
    Заголовок : многоголосый закадровый
    Язык : Russian
    Default : Да
    Forced : Нет
    Аудио #2
    Идентификатор : 3
    Формат : AC-3
    Формат/Информация : Audio Coding 3
    Расширение режима : CM (complete main)
    Параметр Endianness формата : Big
    Идентификатор кодека : A_AC3
    Продолжительность : 1 ч. 41 м.
    Вид битрейта : Постоянный
    Битрейт : 192 Кбит/сек
    Каналы : 2 канала
    Расположение каналов : Front: L R
    Частота : 48,0 КГц
    Частота кадров : 31,250 кадров/сек (1536 spf)
    Метод сжатия : С потерями
    Размер потока : 139 Мбайт (6%)
    Заголовок : оригинал
    Язык : English
    Default : Нет
    Forced : Нет
    Текст
    Идентификатор : 4
    Формат : UTF-8
    Идентификатор кодека : S_TEXT/UTF8
    Идентификатор кодека/Информация : UTF-8 Plain Text
    Заголовок : русские
    Язык : Russian
    Default : Нет
    Forced : Нет

    Скриншот c названием фильма

    Скриншоты





    log 2pass

    ---[Information] [10.07.2016 14:14:51] avs [info]: 1018x552p 1:1 @ 24000/1001 fps (cfr)
    ---[Information] [10.07.2016 14:14:51] x264 [info]: profile High, level 4.1
    ---[Information] [10.07.2016 23:29:26] x264 [info]: frame I:837 Avg QP:16.25 size:101023
    ---[Information] [10.07.2016 23:29:26] x264 [info]: frame P:28018 Avg QP:18.87 size: 31262
    ---[Information] [10.07.2016 23:29:26] x264 [info]: frame B:116512 Avg QP:20.43 size: 8949
    ---[Information] [10.07.2016 23:29:26] x264 [info]: consecutive B-frames: 1.0% 1.4% 3.6% 18.0% 18.0% 38.3% 8.1% 6.2% 1.8% 0.6% 0.7% 1.5% 0.3% 0.1% 0.3%
    ---[Information] [10.07.2016 23:29:26] x264 [info]: ref P L0: 40.5% 10.8% 18.3% 6.1% 6.2% 3.8% 4.0% 1.8% 2.6% 1.6% 1.6% 1.2% 1.4% 0.1% 0.0%
    ---[Information] [10.07.2016 23:29:26] x264 [info]: ref B L0: 65.6% 12.9% 6.5% 3.7% 3.0% 2.4% 1.8% 1.2% 1.1% 1.1% 0.5% 0.3%
    ---[Information] [10.07.2016 23:29:26] x264 [info]: ref B L1: 91.7% 8.3%
    ---[Information] [10.07.2016 23:29:26] x264 [info]: kb/s:2643.13

    Пример субтитров

    1
    00:00:59,226 --> 00:01:02,187
    Panasonic.. Идеи для жизни.
    2
    00:01:05,649 --> 00:01:07,693
    Они ужасны.
    3
    00:01:08,235 --> 00:01:12,198
    - Все действительно... очень плохо.
    - Да.
    4
    00:01:13,699 --> 00:01:15,910
    Отвратительно.
    5
    00:01:17,495 --> 00:01:21,666
    Нам нужно что-то свежее, что-то,
    что не выглядит так, будто он из космоса.
    6
    00:01:22,750 --> 00:01:23,768
    Да.
    7
    00:01:24,251 --> 00:01:27,671
    Я имею в виду,
    наш смартфон должен быть самым умным.
    8
    00:01:27,838 --> 00:01:28,922
    Да.
    9
    00:01:33,803 --> 00:01:37,348
    - Нам нужно...
    - Нам нужно...
    10
    00:02:18,347 --> 00:02:21,475
    Они так красивы, они идеальны.
    Скачать .torrent

    Скачать торрент-файл бесплатно и на максимальной скорости!

    Как скачивать? · Что такое торрент? · Рейтинг и ограничения

    !ВНИМАНИЕ!
    Сайт не распространяет и не хранит электронные версии произведений, а занимается лишь лишь предоставлением доступа к создаваемому пользователями каталогу ссылок на торрент-файлы, которые содержат только списки хеш-сумм, убедительная просьба с жалобами обращаться напрямую к пользователю. Файлы для обмена на трекере предоставлены пользователями сайта, и администрация не несёт ответственности за их содержание. Просьба не заливать файлы, защищенные авторскими правами, а также файлы нелегального содержания!


    _________________
    [Профиль] [ЛС]
    Показать сообщения:    
    Ответить на тему

    Текущее время: Сегодня, в 06:59

    Часовой пояс: GMT + 2



    Вы не можете начинать темы
    Вы не можете отвечать на сообщения
    Вы не можете редактировать свои сообщения
    Вы не можете удалять свои сообщения
    Вы не можете голосовать в опросах
    Вы не можете прикреплять файлы к сообщениям
    Вы не можете скачивать файлы