BitTorrentTracker PerecTracker.org
BitTorrentTracker PerecTracker.org
    
Регистрация  ·  Вход
 
 · 
Забыли пароль?

  • Тихий дом / Silent House (Крис Кентис / Chris Kentis, Лора Лау / Laura Lau) [2011, США, Франция, Ужасы, триллер, драма, HDRip-AVC] MVO + Sub (Rus, Eng)

    Ответить на тему
     
    Автор Сообщение

    Light

    Создавать темы 15-Июл-2016 23:50

           

    [Цитировать]

    Тихий дом / Silent HouseСтрана: США, Франция
    Жанр: Ужасы, триллер, драма
    Год выпуска: 2011
    Продолжительность: 01:25:53
    Перевод: Профессиональный (многоголосый, закадровый) | официальный звук
    Cубтитры: русские, английские
    Оригинальная аудиодорожка: нет
    Режиссер: Крис Кентис / Chris Kentis, Лора Лау/ Laura Lau
    В ролях: Элизабет Олсен, Адам Трези, Эрик Шеффер Стивенс, Джулия Чан, Адам Барнетт, Хейли Мерфи
    Описание: Отец и дочь-тинейджер получили работу по реставрации дома. Они решаются переночевать в старом жилище, а рано с утра приступить к работе. Но все пошло не так, когда девушка ночью стала слышать странные звуки с верхних этажей…
    Сэмпл: http://multi-up.com/1109726
    Качество видео: НDRip-AVC
    Формат видео: MKV
    Видео: AVC, 983 Кбит/сек, 880 x 480 (1.852) 23.976 fps
    Аудио: AC-3, 192 Кбит/сек, 2 канала, 48,0 КГц

    MediaInfo

    Формат : Matroska
    Версия формата : Version 4 / Version 2
    Размер файла : 723 Мбайт
    Продолжительность : 1 ч. 25 м.
    Общий поток : 1176 Кбит/сек
    Название фильма : Silent House (2011) HDRip-AVC
    Дата кодирования : UTC 2016-07-13 18:35:20
    Программа кодирования : mkvmerge v8.3.0 ('Over the Horizon') 64bit
    Библиотека кодирования : libebml v1.3.1 + libmatroska v1.4.2
    Видео
    Идентификатор : 1
    Формат : AVC
    Формат/Информация : Advanced Video Codec
    Профиль формата : High@L4.1
    Параметр CABAC формата : Да
    Параметр ReFrames формата : 9 кадров
    Идентификатор кодека : V_MPEG4/ISO/AVC
    Продолжительность : 1 ч. 25 м.
    Битрейт : 983 Кбит/сек
    Ширина : 880 пикселей
    Высота : 480 пикселей
    Соотношение сторон : 1,85:1
    Соотношение сторон в оригинале : 1,85:1
    Режим частоты кадров : Постоянный
    Частота кадров : 23,976 (24000/1001) кадра/сек
    Цветовое пространство : YUV
    Субдискретизация насыщенности : 4:2:0
    Битовая глубина : 8 бит
    Тип развёртки : Прогрессивная
    Бит/(Пиксели*Кадры) : 0.097
    Размер потока : 604 Мбайт (84%)
    Библиотека кодирования : x264 core 148 r2643
    Настройки программы : cabac=1 / ref=9 / deblock=1:-1:-1 / analyse=0x3:0x133 / me=umh / subme=9 / psy=1 / psy_rd=1.00:0.14 / mixed_ref=0 / me_range=24 / chroma_me=1 / trellis=1 / 8x8dct=1 / cqm=0 / deadzone=21,11 / fast_pskip=1 / chroma_qp_offset=-3 / threads=6 / lookahead_threads=1 / sliced_threads=0 / nr=0 / decimate=1 / interlaced=0 / bluray_compat=0 / constrained_intra=0 / bframes=7 / b_pyramid=0 / b_adapt=1 / b_bias=0 / direct=3 / weightb=1 / open_gop=0 / weightp=1 / keyint=239 / keyint_min=23 / scenecut=0 / intra_refresh=0 / rc_lookahead=55 / rc=crf / mbtree=1 / crf=18.0 / qcomp=0.60 / qpmin=10 / qpmax=69 / qpstep=4 / vbv_maxrate=25000 / vbv_bufsize=20000 / crf_max=0.0 / nal_hrd=none / filler=0 / ip_ratio=1.40 / aq=1:0.90
    Default : Да
    Forced : Нет
    Аудио
    Идентификатор : 2
    Формат : AC-3
    Формат/Информация : Audio Coding 3
    Расширение режима : CM (complete main)
    Параметр Endianness формата : Big
    Идентификатор кодека : A_AC3
    Продолжительность : 1 ч. 25 м.
    Вид битрейта : Постоянный
    Битрейт : 192 Кбит/сек
    Каналы : 2 канала
    Расположение каналов : Front: L R
    Частота : 48,0 КГц
    Частота кадров : 31,250 кадров/сек (1536 spf)
    Метод сжатия : С потерями
    Задержка видео : -83 мс.
    Размер потока : 118 Мбайт (16%)
    Язык : Russian
    Default : Да
    Forced : Нет
    Текст #1
    Идентификатор : 3
    Формат : UTF-8
    Идентификатор кодека : S_TEXT/UTF8
    Идентификатор кодека/Информация : UTF-8 Plain Text
    Продолжительность : 1 ч. 18 м.
    Битрейт : 35 бит/сек
    Count of elements : 446
    Размер потока : 20,6 Кбайт (0%)
    Язык : Russian
    Default : Нет
    Forced : Нет
    Текст #2
    Идентификатор : 4
    Формат : UTF-8
    Идентификатор кодека : S_TEXT/UTF8
    Идентификатор кодека/Информация : UTF-8 Plain Text
    Продолжительность : 1 ч. 15 м.
    Битрейт : 22 бит/сек
    Count of elements : 447
    Размер потока : 12,4 Кбайт (0%)
    Язык : English
    Default : Да
    Forced : Нет

    Скриншоты

    Скачать .torrent

    Скачать торрент-файл бесплатно и на максимальной скорости!

    Как скачивать? · Что такое торрент? · Рейтинг и ограничения

    !ВНИМАНИЕ!
    Сайт не распространяет и не хранит электронные версии произведений, а занимается лишь лишь предоставлением доступа к создаваемому пользователями каталогу ссылок на торрент-файлы, которые содержат только списки хеш-сумм, убедительная просьба с жалобами обращаться напрямую к пользователю. Файлы для обмена на трекере предоставлены пользователями сайта, и администрация не несёт ответственности за их содержание. Просьба не заливать файлы, защищенные авторскими правами, а также файлы нелегального содержания!


    _________________
    [Профиль] [ЛС]
    Показать сообщения:    
    Ответить на тему

    Текущее время: Сегодня, в 14:26

    Часовой пояс: GMT + 2



    Вы не можете начинать темы
    Вы не можете отвечать на сообщения
    Вы не можете редактировать свои сообщения
    Вы не можете удалять свои сообщения
    Вы не можете голосовать в опросах
    Вы не можете прикреплять файлы к сообщениям
    Вы не можете скачивать файлы