BitTorrentTracker PerecTracker.org
BitTorrentTracker PerecTracker.org
    
Регистрация  ·  Вход
 
 · 
Забыли пароль?

  • Полярный экспресс / The Polar Express (Роберт Земекис / Robert Zemeckis) [2004, США, Анимация, BDRip] AVO Сергей Визгунов + Original Eng

    Ответить на тему
     
    Автор Сообщение

    Flirldrerve

    Создавать темы 15-Июл-2016 15:10

           

    [Цитировать]

    Полярный экспресс / The Polar Express
    «В эти новогодние праздники... просто поверь!»
    Страна: США
    Жанр: Анимация
    Продолжительность: 01:39:56
    Год выпуска: 2004
    Перевод: Авторский (одноголосый закадровый) Сергей Визгунов
    Русские субтитры: нет
    Оригинальная аудиодорожка: английский
    Режиссёр: Роберт Земекис / Robert Zemeckis
    Роли озвучивали: Том Хэнкс, Лесли Хартер Земекис, Эдди Дизен, Нона Гэй, Питер Сколари, Брендан Кинг, Энди Пеллик, Джош Эли, Марк Мендонка, Роландас Хендрикс
    Описание: Экранизация одноименной детской книги о необыкновенном путешествии маленького мальчика на волшебном поезде «Полярный экспресс» на Северный полюс к Санта-Клаусу в канун Рождества…
    Доп. информация: Дорожка с С. Визгуновым синхронизирована и наложена ale_x2008 при помощи Sony Vegas и VirtualDubMod.
    За оцифрованную с VHS дорожку благодарим - d_rocker

    Релиз
    Семпл: https://yadi.sk/i/UXxHqSGVtKJcC
    Качество: BDRip (Видеоряд от DaniLch с HQCLUB)
    Формат: AVI
    Видео: XviD build 50, 720x304 (2.37:1), 23.976 fps, 1688 kbps avg, 0.32 bit/pixel
    Аудио: AC3 Dolby Digital, 48000Hz, 2/0 (L,R) ch (mono), 192.00 kbps avg [AVO]
    Аудио 2: AC3 Dolby Digital, 48000Hz, 2/0 (L,R) ch (stereo), 192.00 kbps avg [Eng]
    Субтитры: отсутствуют

    Подробные технические данные

    Полярный экспресс - The Polar Express (by ale_2008).aviFormat : AVIFormat/Info : Audio Video InterleaveFile size : 1.46 GiBDuration : 1h 39mnOverall bit rate : 2 087 KbpsMovie name : The Polar Express (2004) BDRipDirector : DaniLch R.G. HQCLUBGenre : Animation/Adventure/FamilyWriting application : VirtualDubMod 1.5.10.3 (build 2550/release)Copyright : ale_x2008 | Edich2Comment : RuTracker.org
    VideoID : 0Format : MPEG-4 VisualFormat profile : Advanced Simple@L5Format settings, BVOP : 1Format settings, QPel : NoFormat settings, GMC : No warppointsFormat settings, Matrix : CustomCodec ID : XVIDCodec ID/Hint : XviDDuration : 1h 39mnBit rate : 1 689 KbpsWidth : 720 pixelsHeight : 304 pixelsDisplay aspect ratio : 2.35:1Frame rate : 23.976 (23976/1000) fpsColor space : YUVChroma subsampling : 4:2:0Bit depth : 8 bitsScan type : ProgressiveCompression mode : LossyBits/(Pixel*Frame) : 0.322Stream size : 1.18 GiB (81%)Writing library : XviD 1.2.1 (UTC 2008-12-04)
    Audio #1ID : 1Format : AC-3Format/Info : Audio Coding 3Mode extension : CM (complete main)Format settings, Endianness : BigCodec ID : 2000Duration : 1h 39mnBit rate mode : ConstantBit rate : 192 KbpsChannel(s) : 2 channelsChannel positions : Front: L RSampling rate : 48.0 KHzFrame rate : 31.250 fps (1536 spf)Compression mode : LossyStream size : 137 MiB (9%)Alignment : Split accross interleavesInterleave, duration : 42 ms (1.00 video frame)Interleave, preload duratio : 500 ms
    Audio #2ID : 2Format : AC-3Format/Info : Audio Coding 3Mode extension : CM (complete main)Format settings, Endianness : BigCodec ID : 2000Duration : 1h 39mnBit rate mode : ConstantBit rate : 192 KbpsChannel(s) : 2 channelsChannel positions : Front: L RSampling rate : 48.0 KHzFrame rate : 31.250 fps (1536 spf)Compression mode : LossyStream size : 137 MiB (9%)Alignment : Split accross interleavesInterleave, duration : 42 ms (1.00 video frame)Interleave, preload duratio : 500 ms

    Скриншоты


    Скачать .torrent

    Скачать торрент-файл бесплатно и на максимальной скорости!

    Как скачивать? · Что такое торрент? · Рейтинг и ограничения

    !ВНИМАНИЕ!
    Сайт не распространяет и не хранит электронные версии произведений, а занимается лишь лишь предоставлением доступа к создаваемому пользователями каталогу ссылок на торрент-файлы, которые содержат только списки хеш-сумм, убедительная просьба с жалобами обращаться напрямую к пользователю. Файлы для обмена на трекере предоставлены пользователями сайта, и администрация не несёт ответственности за их содержание. Просьба не заливать файлы, защищенные авторскими правами, а также файлы нелегального содержания!


    _________________
    [Профиль] [ЛС]
    Показать сообщения:    
    Ответить на тему

    Текущее время: Сегодня, в 22:31

    Часовой пояс: GMT + 2



    Вы не можете начинать темы
    Вы не можете отвечать на сообщения
    Вы не можете редактировать свои сообщения
    Вы не можете удалять свои сообщения
    Вы не можете голосовать в опросах
    Вы не можете прикреплять файлы к сообщениям
    Вы не можете скачивать файлы