BitTorrentTracker PerecTracker.org
BitTorrentTracker PerecTracker.org
    
Регистрация  ·  Вход
 
 · 
Забыли пароль?

  • Горбун из Нотр Дама / The Hunchback of Notre Dame (Гари Труздейл / Gary Trousdale, Кирк Уайз / Kirk Wise) [1996, США, Анимация, BDRip] AVO Сергей Визгунов + Original Eng

    Ответить на тему
     
    Автор Сообщение

    Flirldrerve

    Создавать темы 15-Июл-2016 10:58

           

    [Цитировать]

    Горбун из Нотр Дама / The Hunchback of Notre Dame
    Страна: США
    Жанр: Анимация
    Продолжительность: 01:30:49
    Год выпуска: 1996
    Перевод: Авторский (одноголосый закадровый) Сергей Визгунов
    Русские субтитры: нет
    Оригинальная аудиодорожка: английский
    Режиссёр: Гари Труздейл / Gary Trousdale, Кирк Уайз / Kirk Wise
    Роли озвучивали: Деми Мур, Том Халс, Тони Джей, Кевин Клайн, Пол Кандел, Джейсон Александер, Мэри Кэй Бергман, Кори Бертон, Джим Каммингс, Билл Фагербакки
    Описание: Юная цыганка Эсмеральда зарабатывает на жизнь танцами. У нее есть друзья, но недоброжелатели столь могущественны, что Эсмеральда попадает в тюрьму. Звонарь Квазимодо устраивает девушке побег. А потом спасает ее, когда ослепленный ненавистью епископ Фролло пытается сам расправиться с ней. Этот мультфильм, в отличии от известного романа В. Гюго, кончается счастливо для главных героев.
    Доп. информация: Дорожка с С. Визгуновым синхронизирована и наложена ale_x2008 при помощи Adobe Audition, Sony Vegas и VirtualDubMod.
    За оцифрованную с VHS дорожку благодарим - d_rocker

    Релиз
    Семпл: https://yadi.sk/i/gJEedlpJtKG3w
    Качество: BDRip (Видеоряд от kingsize87 с HQCLUB)
    Формат: AVI
    Видео: XviD build 65, 704x400 (1.76:1), 23.976 fps, 1704 kbps avg, 0.25 bit/pixel
    Аудио: AC3 Dolby Digital, 48000Hz, 2/0 (L,R) ch (mono), 192.00 kbps avg [AVO]
    Аудио 2: AC3 Dolby Digital, 48000Hz, 3/2 (L,C,R,l,r) + LFE ch, 384.00 kbps avg [Eng]
    Субтитры: отсутствуют

    Подробные технические данные

    Горбун из Нотр Дама - The Hunchback of Notre Dame [by ale_x2008].aviFormat : AVIFormat/Info : Audio Video InterleaveFile size : 1.46 GiBDuration : 1h 30mnOverall bit rate : 2 295 KbpsMovie name : Горбун из Нотр Дама / The Hunchback of Notre Dame (1996) BDRipDirector : kingsize87Writing application : VirtualDubMod 1.5.10.3 (build 2550/release)Copyright : ale_x2008 | Edich2Comment : 03.04.2013
    VideoID : 0Format : MPEG-4 VisualFormat profile : Advanced Simple@L5Format settings, BVOP : 1Format settings, QPel : NoFormat settings, GMC : No warppointsFormat settings, Matrix : CustomCodec ID : XVIDCodec ID/Hint : XviDDuration : 1h 30mnBit rate : 1 705 KbpsWidth : 704 pixelsHeight : 400 pixelsDisplay aspect ratio : 16:9Frame rate : 23.976 (24000/1001) fpsColor space : YUVChroma subsampling : 4:2:0Bit depth : 8 bitsScan type : ProgressiveCompression mode : LossyBits/(Pixel*Frame) : 0.253Stream size : 1.08 GiB (74%)Writing library : XviD 65
    Audio #1ID : 1Format : AC-3Format/Info : Audio Coding 3Mode extension : CM (complete main)Format settings, Endianness : BigCodec ID : 2000Duration : 1h 30mnBit rate mode : ConstantBit rate : 192 KbpsChannel(s) : 2 channelsChannel positions : Front: L RSampling rate : 48.0 KHzFrame rate : 31.250 fps (1536 spf)Compression mode : LossyStream size : 125 MiB (8%)Alignment : Split accross interleavesInterleave, duration : 42 ms (1.00 video frame)Interleave, preload duratio : 500 ms
    Audio #2ID : 2Format : AC-3Format/Info : Audio Coding 3Mode extension : CM (complete main)Format settings, Endianness : BigCodec ID : 2000Duration : 1h 30mnBit rate mode : ConstantBit rate : 384 KbpsChannel(s) : 6 channelsChannel positions : Front: L C R, Side: L R, LFESampling rate : 48.0 KHzFrame rate : 31.250 fps (1536 spf)Compression mode : LossyStream size : 249 MiB (17%)Alignment : Split accross interleavesInterleave, duration : 42 ms (1.00 video frame)Interleave, preload duratio : 500 ms

    Скриншоты


    Скачать .torrent

    Скачать торрент-файл бесплатно и на максимальной скорости!

    Как скачивать? · Что такое торрент? · Рейтинг и ограничения

    !ВНИМАНИЕ!
    Сайт не распространяет и не хранит электронные версии произведений, а занимается лишь лишь предоставлением доступа к создаваемому пользователями каталогу ссылок на торрент-файлы, которые содержат только списки хеш-сумм, убедительная просьба с жалобами обращаться напрямую к пользователю. Файлы для обмена на трекере предоставлены пользователями сайта, и администрация не несёт ответственности за их содержание. Просьба не заливать файлы, защищенные авторскими правами, а также файлы нелегального содержания!


    _________________
    [Профиль] [ЛС]
    Показать сообщения:    
    Ответить на тему

    Текущее время: Сегодня, в 01:49

    Часовой пояс: GMT + 2



    Вы не можете начинать темы
    Вы не можете отвечать на сообщения
    Вы не можете редактировать свои сообщения
    Вы не можете удалять свои сообщения
    Вы не можете голосовать в опросах
    Вы не можете прикреплять файлы к сообщениям
    Вы не можете скачивать файлы