BitTorrentTracker PerecTracker.org
BitTorrentTracker PerecTracker.org
    
Регистрация  ·  Вход
 
 · 
Забыли пароль?

  • Как на ладони / Ничего личного / Towelhead / Nothing Is Private (Алан Болл / Alan Ball) [2007, США, драма, WEB-DL 720p] MVO + Sub Eng + Original Eng

    Ответить на тему
     
    Автор Сообщение

    Light

    Создавать темы 14-Июл-2016 17:41

           

    [Цитировать]

    Как на ладони / Ничего личного / Towelhead / Nothing Is Private
    -Страна: США
    Жанр: драма
    Год выпуска: 2007
    Продолжительность: 01:56:36-Перевод: Профессиональный (многоголосый закадровый)
    Cубтитры: английские
    Оригинальная аудиодорожка: английский-Режиссер: Алан Болл / Alan Ball-В ролях: Аарон Экхарт, Тони Коллетт, Мария Белло, Питер Макдисси, Юджин Джонс, Линн Коллинз, Чейз Эллисон, Мэтт Летчер, Крис Мессина, Джеменн де ла Пенья, Кэрри Престон, Саммер Бишил-Описание:
    «Кто ты?» — спрашивает строгий отец-ливанец Джазиру Марун. Джазира не уверена. Она типичная 13-летняя девочка. Но для пригорода Хьюстона очень необычно ее американо-арабское происхождение. Ей нравится мальчик в школе. Ее тянет к привлекательному женатому соседу, состоящему в резерве армии. Ей любопытен секс. Но она ничего не смыслит в отношениях. Все эти люди пресекаются в судьбоносных, эмоциональных и зачастую смешных событиях, которые меняют жизнь Джазиры кардинально. Кто такая Джазира? Ответ на этот вопрос, как и на многие другие, может вас удивить.-Сэмпл: Скачать-Тип релиза: WEB-DL 720p
    Контейнер: MKV-Видео: 1 280x532 (2.40:1); 3 979 Kbps; 23.976 fps; 0.180 bpp
    Аудио 1: Russian; AC3; 48.0 KHz; 6ch; 384 Kbps
    Аудио 2: English; AC3; 48.0 KHz; 6ch; 384 Kbps
    Аудио 3: English; AAC; 48.0 KHz; 2ch; ~160 Kbps

    MediaInfo

    Format : Matroska
    Format version : Version 4 / Version 2
    File size : 3.83 GiB
    Duration : 1h 56mn
    Overall bit rate : 4 703 Kbps
    Encoded date : UTC 2016-07-13 12:33:40
    Writing application : mkvmerge v8.3.0 ('Over the Horizon') 64bit
    Writing library : libebml v1.3.1 + libmatroska v1.4.2
    Attachments : poster.jpg
    Video
    ID : 1
    Format : AVC
    Format/Info : Advanced Video Codec
    Format profile : Main@L3.1
    Format settings, CABAC : No
    Format settings, ReFrames : 2 frames
    Codec ID : V_MPEG4/ISO/AVC
    Duration : 1h 56mn
    Bit rate : 3 780 Kbps
    Width : 1 280 pixels
    Height : 532 pixels
    Display aspect ratio : 2.40:1
    Frame rate mode : Constant
    Frame rate : 23.976 (23976/1000) fps
    Color space : YUV
    Chroma subsampling : 4:2:0
    Bit depth : 8 bits
    Scan type : Progressive
    Bits/(Pixel*Frame) : 0.232
    Stream size : 3.08 GiB (80%)
    Language : English
    Default : Yes
    Forced : No
    Color range : Limited
    Color primaries : BT.709
    Transfer characteristics : BT.709
    Matrix coefficients : BT.709
    Audio #1
    ID : 2
    Format : AC-3
    Format/Info : Audio Coding 3
    Mode extension : CM (complete main)
    Format settings, Endianness : Big
    Codec ID : A_AC3
    Duration : 1h 56mn
    Bit rate mode : Constant
    Bit rate : 384 Kbps
    Channel(s) : 6 channels
    Channel positions : Front: L C R, Side: L R, LFE
    Sampling rate : 48.0 KHz
    Frame rate : 31.250 fps (1536 spf)
    Compression mode : Lossy
    Stream size : 320 MiB (8%)
    Title : MVO
    Language : Russian
    Default : Yes
    Forced : No
    Audio #2
    ID : 3
    Format : AAC
    Format/Info : Advanced Audio Codec
    Format profile : LC
    Codec ID : A_AAC
    Duration : 1h 56mn
    Bit rate : 157 Kbps
    Channel(s) : 2 channels
    Channel positions : Front: L R
    Sampling rate : 48.0 KHz
    Frame rate : 46.875 fps (1024 spf)
    Compression mode : Lossy
    Stream size : 131 MiB (3%)
    Language : English
    Default : No
    Forced : No
    Audio #3
    ID : 4
    Format : AC-3
    Format/Info : Audio Coding 3
    Mode extension : CM (complete main)
    Format settings, Endianness : Big
    Codec ID : A_AC3
    Duration : 1h 56mn
    Bit rate mode : Constant
    Bit rate : 384 Kbps
    Channel(s) : 6 channels
    Channel positions : Front: L C R, Side: L R, LFE
    Sampling rate : 48.0 KHz
    Frame rate : 31.250 fps (1536 spf)
    Compression mode : Lossy
    Stream size : 321 MiB (8%)
    Language : English
    Default : No
    Forced : No
    Text
    ID : 5
    Format : UTF-8
    Codec ID : S_TEXT/UTF8
    Codec ID/Info : UTF-8 Plain Text
    Duration : 1h 48mn
    Bit rate : 49 bps
    Count of elements : 1172
    Stream size : 39.5 KiB (0%)
    Language : English
    Default : No
    Forced : No
    Menu
    00:00:00.000 : en:Chapter 1
    00:10:00.000 : en:Chapter 2
    00:20:00.000 : en:Chapter 3
    00:30:00.000 : en:Chapter 4
    00:40:00.000 : en:Chapter 5
    00:50:00.000 : en:Chapter 6
    01:00:00.000 : en:Chapter 7
    01:10:00.000 : en:Chapter 8
    01:20:00.000 : en:Chapter 9
    01:30:00.000 : en:Chapter 10
    01:40:00.000 : en:Chapter 11
    01:50:00.000 : en:Chapter 12

    Скриншоты

    Скачать .torrent

    Скачать торрент-файл бесплатно и на максимальной скорости!

    Как скачивать? · Что такое торрент? · Рейтинг и ограничения

    !ВНИМАНИЕ!
    Сайт не распространяет и не хранит электронные версии произведений, а занимается лишь лишь предоставлением доступа к создаваемому пользователями каталогу ссылок на торрент-файлы, которые содержат только списки хеш-сумм, убедительная просьба с жалобами обращаться напрямую к пользователю. Файлы для обмена на трекере предоставлены пользователями сайта, и администрация не несёт ответственности за их содержание. Просьба не заливать файлы, защищенные авторскими правами, а также файлы нелегального содержания!


    _________________
    [Профиль] [ЛС]
    Показать сообщения:    
    Ответить на тему

    Текущее время: Сегодня, в 08:04

    Часовой пояс: GMT + 2



    Вы не можете начинать темы
    Вы не можете отвечать на сообщения
    Вы не можете редактировать свои сообщения
    Вы не можете удалять свои сообщения
    Вы не можете голосовать в опросах
    Вы не можете прикреплять файлы к сообщениям
    Вы не можете скачивать файлы