BitTorrentTracker PerecTracker.org
BitTorrentTracker PerecTracker.org
    
Регистрация  ·  Вход
 
 · 
Забыли пароль?

  • Хардкор / Hardcore Henry (Илья Найшуллер / Ilya Nayshuller) [2015, Россия, США, боевик, фантастика, BDRip 720p] Dub (iTunes) + 2x Sub (Eng) + Original Eng

    Ответить на тему
     
    Автор Сообщение

    Light

    Создавать темы 14-Июл-2016 17:41

           

    [Цитировать]

    Хардкор / Hardcore Henry«First they made him dangerous. Then they made him mad»
    Страна: Россия, США
    Жанр: боевик, фантастика
    Год выпуска: 2015
    Продолжительность: 01:36:50
    Перевод: Профессиональный (дублированный) iTunes
    Cубтитры: английские [Full, SDH]
    Оригинальная аудиодорожка: английский
    -
    Режиссер: Илья Найшуллер / Ilya Nayshuller
    В ролях: Шарлто Копли, Данила Козловский, Хейли Беннетт, Андрей Дементьев, Сергей Шнуров, Кирилл Серебренников, Александр Паль, Светлана Устинова, Даша Чаруша, Равшана Куркова, Полина Филоненко, Евгений Баженов, Константин Хабенский, Михаил Изотов, Сергей Валяев, Сергей Мезенцев, Виталий Воскресенский, Алена Чехова, Леонид Парфёнов, Тим Рот
    -
    Описание: Прекрасная супружеская жизнь рядом с очаровательной Эстель — это все, что помнит главный герой после того, как просыпается в неизвестной научной лаборатории, где в чувства его приводит собственная жена. Но супруга тут же оказывается похищенной, и ничего не понимающий главный герой Генри уже вынужден преследовать монстра Акана, который украл его жену.
    Теперь ради достижения цели Генри готов на многое. Но позже оказывается, что не только он один является врагом для Акана. У подозрительного Джимми тоже свои планы на злодея. Теперь вместе ребятам предстоит спасти Эстель и предотвратить попытку задействовать армию киборгов в борьбе с человечеством. Им предстоит бороться с самим воплощением зла.

    Тип релиза: BDRip 720p
    Контейнер: MKV
    Видео: H.264 / NTSC 16:9 / 1280x692 (1,85:1) / 7508 kbps / 23,976 fps / 0.354 bit/pixel / High@L4.1
    Аудио 1: Russian / Dolby Digital Audio / 5.1 Ch / 48 kHz / 384 kbps / 16 bit / DUB
    Аудио 2: English / Dolby Digital Audio / 5.1 Ch / 48 kHz / 640 kbps / 16 bit / Original
    Формат субтитров: softsub (SRT)
    Навигация по главам: есть

    x264

    x264 [info]: frame I:650   Avg QP:13.10  size:104644
    x264 [info]: frame P:46477 Avg QP:15.21  size: 58832
    x264 [info]: frame B:92194 Avg QP:17.07  size: 28756
    x264 [info]: consecutive B-frames: 11.3%  9.2% 16.0% 21.9% 14.4% 19.9%  3.3%  1.1%  0.9%  0.4%  1.5%

    MediaInfo

    Общее
    Уникальный идентификатор                 : 187554342213118983357054384631802344915 (0x8D19A702D26BEFD699397555D8A5B5D3)
    Полное имя                               : D:\Hardcore Henry.2015.BDRip.720p.mkv
    Формат                                   : Matroska
    Версия формата                           : Version 4 / Version 2
    Размер файла                             : 5,77 Гбайт
    Продолжительность                        : 1 ч. 36 м.
    Общий поток                              : 8534 Кбит/сек
    Название фильма                          : Release for RuTracker © flaSI-I
    Дата кодирования                         : UTC 2016-07-13 17:39:44
    Программа кодирования                    : mkvmerge v9.2.0 ('Photograph') 64bit
    Библиотека кодирования                   : libebml v1.3.3 + libmatroska v1.4.4
    Видео
    Идентификатор                            : 1
    Формат                                   : AVC
    Формат/Информация                        : Advanced Video Codec
    Профиль формата                          : High@L4.1
    Параметр CABAC формата                   : Да
    Параметр ReFrames формата                : 8 кадров
    Идентификатор кодека                     : V_MPEG4/ISO/AVC
    Продолжительность                        : 1 ч. 36 м.
    Битрейт                                  : 7508 Кбит/сек
    Ширина                                   : 1280 пикселей
    Высота                                   : 692 пикселя
    Соотношение сторон                       : 1,85:1
    Режим частоты кадров                     : Постоянный
    Частота кадров                           : 23,976 (24000/1001) кадра/сек
    Цветовое пространство                    : YUV
    Субдискретизация насыщенности            : 4:2:0
    Битовая глубина                          : 8 бит
    Тип развёртки                            : Прогрессивная
    Бит/(Пиксели*Кадры)                      : 0.354
    Размер потока                            : 5,08 Гбайт (88%)
    Библиотека кодирования                   : x264 core 148 r2638 7599210
    Настройки программы                      : cabac=1 / ref=8 / deblock=1:-3:-3 / analyse=0x3:0x133 / me=tesa / subme=11 / psy=1 / psy_rd=1.00:0.00 / mixed_ref=1 / me_range=24 / chroma_me=1 / trellis=2 / 8x8dct=1 / cqm=0 / deadzone=21,11 / fast_pskip=0 / chroma_qp_offset=-2 / threads=12 / lookahead_threads=3 / sliced_threads=0 / nr=0 / decimate=1 / interlaced=0 / bluray_compat=0 / constrained_intra=0 / bframes=10 / b_pyramid=2 / b_adapt=2 / b_bias=0 / direct=3 / weightb=1 / open_gop=0 / weightp=2 / keyint=240 / keyint_min=23 / scenecut=40 / intra_refresh=0 / rc_lookahead=60 / rc=crf / mbtree=0 / crf=16.5 / qcomp=0.73 / qpmin=0 / qpmax=69 / qpstep=4 / vbv_maxrate=62500 / vbv_bufsize=78125 / crf_max=0.0 / nal_hrd=none / filler=0 / ip_ratio=1.34 / pb_ratio=1.24 / aq=1:0.80
    Язык                                     : English
    Default                                  : Да
    Forced                                   : Нет
    Аудио #1
    Идентификатор                            : 2
    Формат                                   : AC-3
    Формат/Информация                        : Audio Coding 3
    Расширение режима                        : CM (complete main)
    Параметр Endianness формата              : Big
    Идентификатор кодека                     : A_AC3
    Продолжительность                        : 1 ч. 36 м.
    Вид битрейта                             : Постоянный
    Битрейт                                  : 384 Кбит/сек
    Каналы                                   : 6 каналов
    Расположение каналов                     : Front: L C R, Side: L R, LFE
    Частота                                  : 48,0 КГц
    Частота кадров                           : 31,250 кадров/сек (1536 spf)
    Метод сжатия                             : С потерями
    Размер потока                            : 266 Мбайт (4%)
    Заголовок                                : DUB / iTunes
    Язык                                     : Russian
    Default                                  : Да
    Forced                                   : Нет
    Аудио #2
    Идентификатор                            : 3
    Формат                                   : AC-3
    Формат/Информация                        : Audio Coding 3
    Расширение режима                        : CM (complete main)
    Параметр Endianness формата              : Big
    Идентификатор кодека                     : A_AC3
    Продолжительность                        : 1 ч. 36 м.
    Вид битрейта                             : Постоянный
    Битрейт                                  : 640 Кбит/сек
    Каналы                                   : 6 каналов
    Расположение каналов                     : Front: L C R, Side: L R, LFE
    Частота                                  : 48,0 КГц
    Частота кадров                           : 31,250 кадров/сек (1536 spf)
    Метод сжатия                             : С потерями
    Размер потока                            : 443 Мбайт (7%)
    Заголовок                                : Original
    Язык                                     : English
    Default                                  : Нет
    Forced                                   : Нет
    Текст #1
    Идентификатор                            : 4
    Формат                                   : UTF-8
    Идентификатор кодека                     : S_TEXT/UTF8
    Идентификатор кодека/Информация          : UTF-8 Plain Text
    Продолжительность                        : 1 ч. 32 м.
    Битрейт                                  : 28 бит/сек
    Count of elements                        : 579
    Размер потока                            : 19,2 Кбайт (0%)
    Заголовок                                : Original
    Язык                                     : English
    Default                                  : Нет
    Forced                                   : Нет
    Текст #2
    Идентификатор                            : 5
    Формат                                   : UTF-8
    Идентификатор кодека                     : S_TEXT/UTF8
    Идентификатор кодека/Информация          : UTF-8 Plain Text
    Продолжительность                        : 1 ч. 32 м.
    Битрейт                                  : 31 бит/сек
    Count of elements                        : 672
    Размер потока                            : 21,5 Кбайт (0%)
    Заголовок                                : Original / SDH
    Язык                                     : English
    Default                                  : Нет
    Forced                                   : Нет
    Меню
    00:00:00.000                             : en:00:00:00.000
    00:04:04.494                             : en:00:04:04.494
    00:08:36.641                             : en:00:08:36.641
    00:14:12.935                             : en:00:14:12.935
    00:18:45.333                             : en:00:18:45.333
    00:22:38.816                             : en:00:22:38.816
    00:26:12.237                             : en:00:26:12.237
    00:30:05.345                             : en:00:30:05.345
    00:34:30.193                             : en:00:34:30.193
    00:37:44.429                             : en:00:37:44.429
    00:42:19.537                             : en:00:42:19.537
    00:47:05.406                             : en:00:47:05.406
    00:52:51.085                             : en:00:52:51.085
    00:56:00.482                             : en:00:56:00.482
    01:03:47.824                             : en:01:03:47.824
    01:11:23.988                             : en:01:11:23.988
    01:15:54.884                             : en:01:15:54.884
    01:22:04.670                             : en:01:22:04.670
    01:24:10.045                             : en:01:24:10.045
    01:29:31.116                             : en:01:29:31.116

    Скриншоты

    Скачать .torrent

    Скачать торрент-файл бесплатно и на максимальной скорости!

    Как скачивать? · Что такое торрент? · Рейтинг и ограничения

    !ВНИМАНИЕ!
    Сайт не распространяет и не хранит электронные версии произведений, а занимается лишь лишь предоставлением доступа к создаваемому пользователями каталогу ссылок на торрент-файлы, которые содержат только списки хеш-сумм, убедительная просьба с жалобами обращаться напрямую к пользователю. Файлы для обмена на трекере предоставлены пользователями сайта, и администрация не несёт ответственности за их содержание. Просьба не заливать файлы, защищенные авторскими правами, а также файлы нелегального содержания!


    _________________
    [Профиль] [ЛС]
    Показать сообщения:    
    Ответить на тему

    Текущее время: Сегодня, в 04:15

    Часовой пояс: GMT + 2



    Вы не можете начинать темы
    Вы не можете отвечать на сообщения
    Вы не можете редактировать свои сообщения
    Вы не можете удалять свои сообщения
    Вы не можете голосовать в опросах
    Вы не можете прикреплять файлы к сообщениям
    Вы не можете скачивать файлы