BitTorrentTracker PerecTracker.org
BitTorrentTracker PerecTracker.org
    
Регистрация  ·  Вход
 
 · 
Забыли пароль?

  • [ATV3] Преступник / Criminal (Ариэль Вромен / Ariel Vromen ) [2016, США, Фантастика, боевик, триллер, драма, криминал, детектив, WEB-DL, HD (1080p)] DUB

    Ответить на тему
     
    Автор Сообщение

    rechyn

    Создавать темы 14-Июл-2016 09:17

           

    [Цитировать]

    Преступник / Criminal
    «The CIA's last hope is in the mind of a criminal»
    6.247 / 10 6.40 / 10
    -Год выпуска: 2016
    Страна: США
    Жанр: Фантастика, боевик, триллер, драма, криминал, детектив
    Продолжительность: 01:48:37
    Перевод: Дублированный (iTunes)
    Оригинальная аудиодорожка: Нет
    Cубтитры: Нет
    Режиссёр: Ариэль Вромен
    Сценарий: Дуглас Кук, Дэвид Уайсберг
    Продюсер: Крис Бендер, Криста Кэмпбелл, Боаз Дэвидсон
    Оператор: Дана Гонсалес
    Композитор: Кит Пауэр, Брайан Тайлер
    Художник: Джон Хенсон, Грант Армстронг, Ханна Моусли
    Монтаж: Дэнни Рафик
    В ролях: Кевин Костнер, Гари Олдман, Томми Ли Джонс, Райан Рейнольдс, Элис Ив, Галь Гадот, Хорди Молья, Майкл Питт, Амори Ноласко, Антье Трауэ
    Бюджет: $31 500 000
    Сборы в США: $14 708 696
    Сборы в России: $746 644
    Мировая премьера: 5 апреля 2016
    Премьера (РФ): 14 апреля 2016, «MEGOGO Distribution»
    Описание: В последней отчаянной попытке остановить катастрофу мирового масштаба генетики осуществляют невероятную операцию по вживлению воспоминаний и умений погибшего оперативника ЦРУ в тело опасного заключенного с надеждой, что тот доведет до конца прерванную миссию агента.-Качество исходника: WEB-DL 1080p (HDClub)
    Качество: WEB-DL
    Тип: HD (1080p)
    Контейнер: M4V
    Видео: H.264, 1912x800, 2.40:1, 4 415 Kbps, 25.000 fps
    Аудио 1: Русский/Дублированный (iTunes), AAC / 2.0 / 157 Kbps / 48.0 KHz
    Аудио 2: Русский/Дублированный (iTunes), AC-3 / 5.1 / 384 Kbps / 48.0 KHz
    -

    iTunes Meta Tags

    Sort Name: Преступник
    XID: Apple:vendor_id:2016-775517
    contentID: 1131289407
    Copyright: © 2016 «MEGOGO Distribution»
    Screenwriters: Дуглас Кук, Дэвид Уайсберг
    Producers: Крис Бендер, Криста Кэмпбелл, Боаз Дэвидсон
    Director: Ариэль Вромен
    Cast: Кевин Костнер, Гари Олдман, Томми Ли Джонс, Райан Рейнольдс, Элис Ив, Галь Гадот, Хорди Молья, Майкл Питт, Амори Ноласко, Антье Трауэ
    Studio: Lionsgate
    Rating: 136
    Long Description: В последней отчаянной попытке остановить катастрофу мирового масштаба генетики осуществляют невероятную операцию по вживлению воспоминаний и умений погибшего оперативника ЦРУ в тело опасного заключенного с надеждой, что тот доведет до конца прерванную миссию агента.
    Description: В последней отчаянной попытке остановить катастрофу мирового масштаба генетики осуществляют невероятную операцию по вживлению воспоминаний и умений погибшего оперативника ЦРУ в тело опасного заключенного с надеждой, что тот доведет до конца прерванную миссию агента.
    Release Date: 2016-04-05T08:00:00Z
    Genre: Боевики и приключения
    Artist: Ariel Vromen
    Name: Преступник

    MediaInfo

    General
    Complete name : /Users/imac/HandBrake/Criminal.WEB-DL.1080p..m4v
    Format : MPEG-4
    Codec ID : M4V
    File size : 3.76 GiB
    Duration : 1h 48mn
    Overall bit rate mode : Variable
    Overall bit rate : 4 962 Kbps
    Movie name : Преступник
    Performer : Ariel Vromen
    Director : Ариэль Вромен
    Actor : Кевин Костнер / Гари Олдман / Томми Ли Джонс / Райан Рейнольдс / Элис Ив / Галь Гадот / Хорди Молья / Майкл Питт / Амори Ноласко / Антье Трауэ
    Screenplay by : Дуглас Кук / Дэвид Уайсберг
    Producer : Крис Бендер / Криста Кэмпбелл / Боаз Дэвидсон
    Production studio : Lionsgate
    Genre : Боевики и приключения
    ContentType : Short Film
    Description : В последней отчаянной попытке остановить катастрофу мирового масштаба генетики осуществляют невероятную операцию по вживлению воспоминаний и умений погибшего оперативника ЦРУ в тело опасного заключенного с надеждой, что тот доведет до конца прерванную миссию агента.
    Recorded date : UTC 2016-04-05 08:00:00
    Encoded date : UTC 2016-07-13 19:39:37
    Tagged date : UTC 2016-07-13 19:48:02
    Copyright : © 2016 «MEGOGO Distribution»
    Cover : Yes
    Rating : None
    Title/Sort : Преступник
    LongDescription : В последней отчаянной попытке остановить катастрофу мирового масштаба генетики осуществляют невероятную операцию по вживлению воспоминаний и умений погибшего оперативника ЦРУ в тело опасного заключенного с надеждой, что тот доведет до конца прерванную миссию агента.
    AppleStoreCatalogID : 1131289407
    Vendor : Apple:vendor_id:2016-775517
    ContentRating : ru-movie|18+|400|
    Video #1
    ID : 1
    Format : AVC
    Format/Info : Advanced Video Codec
    Format profile : High@L4
    Format settings, CABAC : Yes
    Format settings, ReFrames : 5 frames
    Codec ID : avc1
    Codec ID/Info : Advanced Video Coding
    Duration : 1h 48mn
    Bit rate : 4 415 Kbps
    Width : 1 912 pixels
    Height : 800 pixels
    Display aspect ratio : 2.40:1
    Frame rate mode : Constant
    Frame rate : 25.000 fps
    Color space : YUV
    Chroma subsampling : 4:2:0
    Bit depth : 8 bits
    Scan type : Progressive
    Bits/(Pixel*Frame) : 0.115
    Stream size : 3.35 GiB (89%)
    Title : Main Program
    Language : English
    Encoded date : UTC 2016-07-13 19:39:37
    Tagged date : UTC 2016-07-13 19:41:08
    Color range : Limited
    Color primaries : BT.709
    Transfer characteristics : BT.709
    Matrix coefficients : BT.709
    Video #2
    ID : 5
    Format : JPEG
    Codec ID : jpeg
    Duration : 1h 48mn
    Bit rate mode : Variable
    Bit rate : 151 bps
    Width : 640 pixels
    Height : 267 pixels
    Display aspect ratio : 2.40:1
    Frame rate mode : Variable
    Frame rate : 0.001 fps
    Minimum frame rate : 0.000 fps
    Maximum frame rate : 0.002 fps
    Color space : YUV
    Chroma subsampling : 4:2:0
    Bit depth : 8 bits
    Compression mode : Lossy
    Bits/(Pixel*Frame) : 0.884
    Stream size : 73.5 KiB (0%)
    Title : Chapter Images
    Language : English
    Encoded date : UTC 2016-07-13 19:41:10
    Tagged date : UTC 2016-07-13 19:41:10
    Audio #1
    ID : 2
    Format : AAC
    Format/Info : Advanced Audio Codec
    Format profile : LC
    Codec ID : 40
    Duration : 1h 48mn
    Bit rate mode : Variable
    Bit rate : 157 Kbps
    Maximum bit rate : 228 Kbps
    Channel(s) : 2 channels
    Channel positions : Front: L R
    Sampling rate : 48.0 KHz
    Compression mode : Lossy
    Stream size : 122 MiB (3%)
    Title : Russian Stereo
    Language : Russian
    Encoded date : UTC 2016-07-13 19:39:37
    Tagged date : UTC 2016-07-13 19:39:42
    Audio #2
    ID : 3
    Format : AC-3
    Format/Info : Audio Coding 3
    Mode extension : CM (complete main)
    Format settings, Endianness : Big
    Codec ID : ac-3
    Duration : 1h 48mn
    Bit rate mode : Constant
    Bit rate : 384 Kbps
    Channel(s) : 6 channels
    Channel positions : Front: L C R, Side: L R, LFE
    Sampling rate : 48.0 KHz
    Bit depth : 16 bits
    Compression mode : Lossy
    Stream size : 298 MiB (8%)
    Title : Russian DD 5.1
    Language : Russian
    Encoded date : UTC 2016-07-13 19:39:37
    Tagged date : UTC 2016-07-13 19:41:08
    Menu #1
    00:00:00.000 : 1
    00:30:26.000 : 2
    01:05:27.000 : 3
    01:40:04.000 : 4
    Menu #2
    ID : 4
    Codec ID : text
    Duration : 1h 48mn
    Language : English
    Encoded date : UTC 2016-07-13 19:41:09
    Tagged date : UTC 2016-07-13 19:41:09
    Bit rate mode : CBR
    00:00:00.000 : 1
    00:30:26.000 : 2
    01:05:27.000 : 3
    01:40:04.000 : 4

    Скриншоты

    -

    Релиз подготовлен для просмотра на Apple TV, iPad, iPhone, iPod Touch.
    Для просмотра данного релиза на компьютере с ОС Windows рекомендуется использовать VLC media player
    Скачать .torrent

    Скачать торрент-файл бесплатно и на максимальной скорости!

    Как скачивать? · Что такое торрент? · Рейтинг и ограничения

    !ВНИМАНИЕ!
    Сайт не распространяет и не хранит электронные версии произведений, а занимается лишь лишь предоставлением доступа к создаваемому пользователями каталогу ссылок на торрент-файлы, которые содержат только списки хеш-сумм, убедительная просьба с жалобами обращаться напрямую к пользователю. Файлы для обмена на трекере предоставлены пользователями сайта, и администрация не несёт ответственности за их содержание. Просьба не заливать файлы, защищенные авторскими правами, а также файлы нелегального содержания!


    _________________
    [Профиль] [ЛС]
    Показать сообщения:    
    Ответить на тему

    Текущее время: Сегодня, в 14:37

    Часовой пояс: GMT + 2



    Вы не можете начинать темы
    Вы не можете отвечать на сообщения
    Вы не можете редактировать свои сообщения
    Вы не можете удалять свои сообщения
    Вы не можете голосовать в опросах
    Вы не можете прикреплять файлы к сообщениям
    Вы не можете скачивать файлы