BitTorrentTracker PerecTracker.org
BitTorrentTracker PerecTracker.org
    
Регистрация  ·  Вход
 
 · 
Забыли пароль?

  • Бабник / Spread (Дэвид Маккензи / David Mackenzie) [2009, США, мелодрама, драма, BDRip 720p] Dub + Sub Eng + Original Eng

    Ответить на тему
     
    Автор Сообщение

    Light

    Создавать темы 13-Июл-2016 20:50

           

    [Цитировать]

    Бабник / Spread
    Страна: США
    Жанр: Мелодрама, драма
    Год выпуска: 2009
    Продолжительность: 01:37:15
    Перевод: Профессиональный (дублированный)
    Cубтитры: английские
    Оригинальная аудиодорожка: английская
    Режиссер: Дэвид Маккензи / David Mackenzie
    В ролях: Эштон Катчер, Энн Хеч, Маргарита Левиева, Себастиан Стэн, Соня Роквэлл, Мария Кончита Алонсо, Харт Бокнер, Томас Кийас, Лэндон Эшворт, Шэйн Бролли
    Описание: Никки молод, неотразим и пользуется безотказным вниманием представительниц противоположного пола. Его роман с Самантой основан исключительно на взаимном интересе. Никки интересует ее кредитная карточка и шикарный особняк, а успешную, но одинокую Саманту — безудержный дикий секс. Но когда Никки встречает Хизер, у циничного жиголо что-то переключается в голове и в сердце…
    Сэмпл: http://multi-up.com/1109512
    Тип релиза: BDRip 720p
    Контейнер: MKV
    Видео: AVC, 1280x534 (2.35:1), 23.976 fps, 6 599 Kbps (0.403 bit/pixel)
    Аудио #1: DTS, 48.0 KHz, 6 ch, 1 510 Kbps, CBR (Russian)
    Аудио #2: DTS, 48.0 KHz, 6 ch, 1 510 Kbps, CBR (English)
    Формат субтитров: softsub (SRT)

    MediaInfo

    Общее
    Уникальный идентификатор : 217601889162736307041741077915378911283 (0xA3B49974341840BBBDB690BBC1F00833)
    Полное имя : W:\torrents\Spread.2009.720p.BluRay.DTS.Rus.Eng.mkv
    Формат : Matroska
    Версия формата : Version 2
    Размер файла : 6,52 Гбайт
    Продолжительность : 1 ч. 37 м.
    Общий поток : 9621 Кбит/сек
    Название фильма : Spread (2009) - Release for HDClub
    Дата кодирования : UTC 2009-11-12 12:32:58
    Программа кодирования : mkvmerge v2.9.8 ('C'est le bon') built on Aug 13 2009 12:49:06
    Библиотека кодирования : libebml v0.7.7 + libmatroska v0.8.1
    Видео
    Идентификатор : 1
    Формат : AVC
    Формат/Информация : Advanced Video Codec
    Профиль формата : High@L4.1
    Параметр CABAC формата : Да
    Параметр ReFrames формата : 8 кадров
    Идентификатор кодека : V_MPEG4/ISO/AVC
    Продолжительность : 1 ч. 37 м.
    Битрейт : 6599 Кбит/сек
    Ширина : 1280 пикселей
    Высота : 534 пикселя
    Соотношение сторон : 2,40:1
    Режим частоты кадров : Постоянный
    Частота кадров : 23,976 кадра/сек
    Цветовое пространство : YUV
    Субдискретизация насыщенности : 4:2:0
    Битовая глубина : 8 бит
    Тип развёртки : Прогрессивная
    Бит/(Пиксели*Кадры) : 0.403
    Размер потока : 4,35 Гбайт (67%)
    Заголовок : Release for HDClub
    Библиотека кодирования : x264 core 78 r1301M bcba15d
    Настройки программы : cabac=1 / ref=8 / deblock=1:-3:-3 / analyse=0x3:0x113 / me=umh / subme=9 / psy=1 / psy_rd=1.1:0.1 / mixed_ref=1 / me_range=24 / chroma_me=1 / trellis=2 / 8x8dct=1 / cqm=0 / deadzone=21,11 / chroma_qp_offset=-3 / threads=6 / nr=0 / decimate=0 / mbaff=0 / constrained_intra=0 / bframes=6 / b_pyramid=2 / b_adapt=2 / b_bias=0 / direct=3 / wpredb=1 / keyint=250 / keyint_min=25 / scenecut=40 / rc=2pass / mbtree=0 / bitrate=6599 / ratetol=1.0 / qcomp=0.60 / qpmin=10 / qpmax=51 / qpstep=4 / cplxblur=20.0 / qblur=0.5 / ip_ratio=1.40 / pb_ratio=1.30 / aq=1:0.60
    Язык : English
    Default : Нет
    Forced : Нет
    Аудио #1
    Идентификатор : 2
    Формат : DTS
    Формат/Информация : Digital Theater Systems
    Режим : 16
    Параметр Endianness формата : Big
    Идентификатор кодека : A_DTS
    Продолжительность : 1 ч. 37 м.
    Вид битрейта : Постоянный
    Битрейт : 1510 Кбит/сек
    Каналы : 6 каналов
    Расположение каналов : Front: L C R, Side: L R, LFE
    Частота : 48,0 КГц
    Частота кадров : 93,750 кадра/сек (512 spf)
    Битовая глубина : 24 бит
    Метод сжатия : С потерями
    Размер потока : 1,02 Гбайт (16%)
    Заголовок : DTS 5.1 1536 Kbps Дубляж
    Язык : Russian
    Default : Да
    Forced : Нет
    Аудио #2
    Идентификатор : 3
    Формат : DTS
    Формат/Информация : Digital Theater Systems
    Режим : 16
    Параметр Endianness формата : Big
    Идентификатор кодека : A_DTS
    Продолжительность : 1 ч. 37 м.
    Вид битрейта : Постоянный
    Битрейт : 1509 Кбит/сек
    Каналы : 6 каналов
    Расположение каналов : Front: L C R, Side: L R, LFE
    Частота : 48,0 КГц
    Частота кадров : 93,750 кадра/сек (512 spf)
    Битовая глубина : 24 бит
    Метод сжатия : С потерями
    Размер потока : 1,02 Гбайт (16%)
    Заголовок : DTS 5.1 1536 Kbps
    Язык : English
    Default : Нет
    Forced : Нет
    Текст
    Идентификатор : 4
    Формат : UTF-8
    Идентификатор кодека : S_TEXT/UTF8
    Идентификатор кодека/Информация : UTF-8 Plain Text
    Язык : English
    Default : Нет
    Forced : Нет
    Меню
    00:00:00.000 : en:Chapter 01
    00:06:24.968 : en:Chapter 02
    00:12:43.388 : en:Chapter 03
    00:18:48.627 : en:Chapter 04
    00:24:45.818 : en:Chapter 05
    00:31:54.996 : en:Chapter 06
    00:37:45.722 : en:Chapter 07
    00:44:52.189 : en:Chapter 08
    00:51:32.548 : en:Chapter 09
    00:57:57.724 : en:Chapter 10
    01:04:02.297 : en:Chapter 11
    01:11:51.307 : en:Chapter 12
    01:20:50.262 : en:Chapter 13
    01:26:48.745 : en:Chapter 14
    01:30:50.028 : en:Chapter 15

    Скриншоты



    Скачать .torrent

    Скачать торрент-файл бесплатно и на максимальной скорости!

    Как скачивать? · Что такое торрент? · Рейтинг и ограничения

    !ВНИМАНИЕ!
    Сайт не распространяет и не хранит электронные версии произведений, а занимается лишь лишь предоставлением доступа к создаваемому пользователями каталогу ссылок на торрент-файлы, которые содержат только списки хеш-сумм, убедительная просьба с жалобами обращаться напрямую к пользователю. Файлы для обмена на трекере предоставлены пользователями сайта, и администрация не несёт ответственности за их содержание. Просьба не заливать файлы, защищенные авторскими правами, а также файлы нелегального содержания!


    _________________
    [Профиль] [ЛС]
    Показать сообщения:    
    Ответить на тему

    Текущее время: Сегодня, в 06:03

    Часовой пояс: GMT + 2



    Вы не можете начинать темы
    Вы не можете отвечать на сообщения
    Вы не можете редактировать свои сообщения
    Вы не можете удалять свои сообщения
    Вы не можете голосовать в опросах
    Вы не можете прикреплять файлы к сообщениям
    Вы не можете скачивать файлы