BitTorrentTracker PerecTracker.org
BitTorrentTracker PerecTracker.org
    
Регистрация  ·  Вход
 
 · 
Забыли пароль?

  • Бабник / Spread (Дэвид Маккензи / David Mackenzie) [2009, США, мелодрама, драма, BDRip 1080p] Dub + Sub Eng + Original Eng

    Ответить на тему
     
    Автор Сообщение

    Light

    Создавать темы 13-Июл-2016 20:50

           

    [Цитировать]

    Бабник / Spread
    Страна: США
    Жанр: Мелодрама, драма
    Год выпуска: 2009
    Продолжительность: 01:37:15
    Перевод: Профессиональный (дублированный)
    Cубтитры: английские
    Оригинальная аудиодорожка: английская
    Режиссер: Дэвид Маккензи / David Mackenzie
    В ролях: Эштон Катчер, Энн Хеч, Маргарита Левиева, Себастиан Стэн, Соня Роквэлл, Мария Кончита Алонсо, Харт Бокнер, Томас Кийас, Лэндон Эшворт, Шэйн Бролли
    Описание: Никки молод, неотразим и пользуется безотказным вниманием представительниц противоположного пола. Его роман с Самантой основан исключительно на взаимном интересе. Никки интересует ее кредитная карточка и шикарный особняк, а успешную, но одинокую Саманту — безудержный дикий секс. Но когда Никки встречает Хизер, у циничного жиголо что-то переключается в голове и в сердце…
    Сэмпл: http://multi-up.com/1109513
    Тип релиза: BDRip 1080p
    Контейнер: MKV
    Видео: AVC, 1920x800 (2.40:1), 23.976 fps, 10.2 Mbps (0.277 bit/pixel)
    Аудио #1: DTS, 48.0 KHz, 6 ch, 1 510 Kbps, CBR (Russian)
    Аудио #2: DTS, 48.0 KHz, 6 ch, 1 510 Kbps, CBR (English)
    Формат субтитров: softsub (SRT)

    MediaInfo

    Общее
    Уникальный идентификатор : 226323100450569942971045521920918641372 (0xAA443E5E4D42DBF3B5A043F0E7E55ADC)
    Полное имя : W:\torrents\Spread.2009.1080p.BluRay.Rus.Eng.mkv
    Формат : Matroska
    Версия формата : Version 2
    Размер файла : 8,97 Гбайт
    Продолжительность : 1 ч. 37 м.
    Общий поток : 13,2 Мбит/сек
    Название фильма : Spread (2009) - Release for HDClub
    Дата кодирования : UTC 2009-11-22 17:35:12
    Программа кодирования : mkvmerge v2.9.8 ('C'est le bon') built on Aug 13 2009 12:49:06
    Библиотека кодирования : libebml v0.7.7 + libmatroska v0.8.1
    Видео
    Идентификатор : 1
    Формат : AVC
    Формат/Информация : Advanced Video Codec
    Профиль формата : High@L4.1
    Параметр CABAC формата : Да
    Параметр ReFrames формата : 5 кадров
    Идентификатор кодека : V_MPEG4/ISO/AVC
    Продолжительность : 1 ч. 37 м.
    Битрейт : 10,2 Мбит/сек
    Ширина : 1920 пикселей
    Высота : 800 пикселей
    Соотношение сторон : 2,40:1
    Режим частоты кадров : Постоянный
    Частота кадров : 23,976 кадра/сек
    Цветовое пространство : YUV
    Субдискретизация насыщенности : 4:2:0
    Битовая глубина : 8 бит
    Тип развёртки : Прогрессивная
    Бит/(Пиксели*Кадры) : 0.277
    Размер потока : 6,74 Гбайт (75%)
    Заголовок : Release for HDClub
    Библиотека кодирования : x264 core 79 r1339M 82b80ef
    Настройки программы : cabac=1 / ref=5 / deblock=1:-3:-3 / analyse=0x3:0x113 / me=umh / subme=10 / psy=1 / psy_rd=1.0:0.0 / mixed_ref=1 / me_range=32 / chroma_me=1 / trellis=2 / 8x8dct=1 / cqm=0 / deadzone=21,11 / chroma_qp_offset=-2 / threads=6 / nr=0 / decimate=0 / mbaff=0 / constrained_intra=0 / bframes=6 / b_pyramid=2 / b_adapt=2 / b_bias=0 / direct=3 / wpredb=1 / wpredp=2 / keyint=240 / keyint_min=24 / scenecut=40 / rc=2pass / mbtree=0 / bitrate=10208 / ratetol=1.0 / qcomp=0.60 / qpmin=10 / qpmax=51 / qpstep=4 / cplxblur=20.0 / qblur=0.5 / ip_ratio=1.40 / pb_ratio=1.30 / aq=1:0.80
    Язык : English
    Default : Да
    Forced : Нет
    Аудио #1
    Идентификатор : 2
    Формат : DTS
    Формат/Информация : Digital Theater Systems
    Режим : 16
    Параметр Endianness формата : Big
    Идентификатор кодека : A_DTS
    Продолжительность : 1 ч. 37 м.
    Вид битрейта : Постоянный
    Битрейт : 1510 Кбит/сек
    Каналы : 6 каналов
    Расположение каналов : Front: L C R, Side: L R, LFE
    Частота : 48,0 КГц
    Частота кадров : 93,750 кадра/сек (512 spf)
    Битовая глубина : 24 бит
    Метод сжатия : С потерями
    Размер потока : 1,02 Гбайт (11%)
    Заголовок : DTS 5.1 1536 Kbps Дубляж
    Язык : Russian
    Default : Да
    Forced : Нет
    Аудио #2
    Идентификатор : 3
    Формат : DTS
    Формат/Информация : Digital Theater Systems
    Режим : 16
    Параметр Endianness формата : Big
    Идентификатор кодека : A_DTS
    Продолжительность : 1 ч. 37 м.
    Вид битрейта : Постоянный
    Битрейт : 1509 Кбит/сек
    Каналы : 6 каналов
    Расположение каналов : Front: L C R, Side: L R, LFE
    Частота : 48,0 КГц
    Частота кадров : 93,750 кадра/сек (512 spf)
    Битовая глубина : 24 бит
    Метод сжатия : С потерями
    Размер потока : 1,02 Гбайт (11%)
    Заголовок : DTS 5.1 1536 Kbps
    Язык : English
    Default : Нет
    Forced : Нет
    Текст
    Идентификатор : 4
    Формат : UTF-8
    Идентификатор кодека : S_TEXT/UTF8
    Идентификатор кодека/Информация : UTF-8 Plain Text
    Язык : English
    Default : Нет
    Forced : Нет
    Меню
    00:00:00.000 : en:Main Title / One Pick Up Line
    00:07:20.921 : en:Creating Equity
    00:14:16.878 : en:The Mice Will Party
    00:20:07.436 : en:Sorry for Getting Caught
    00:28:51.168 : en:No Coffee, No Hikes
    00:35:31.359 : en:Hustling the Hustler
    00:46:21.050 : en:6 Inches & A Pretty Face
    00:50:57.701 : en:Homeless and Friendless
    01:00:51.002 : en:Kissing a lot of Frogs
    01:13:54.410 : en:A Moment of Clarity
    01:20:51.410 : en:A Five for the Grocery Boy
    01:30:51.885 : en:End Credits

    Скриншоты



    Скачать .torrent

    Скачать торрент-файл бесплатно и на максимальной скорости!

    Как скачивать? · Что такое торрент? · Рейтинг и ограничения

    !ВНИМАНИЕ!
    Сайт не распространяет и не хранит электронные версии произведений, а занимается лишь лишь предоставлением доступа к создаваемому пользователями каталогу ссылок на торрент-файлы, которые содержат только списки хеш-сумм, убедительная просьба с жалобами обращаться напрямую к пользователю. Файлы для обмена на трекере предоставлены пользователями сайта, и администрация не несёт ответственности за их содержание. Просьба не заливать файлы, защищенные авторскими правами, а также файлы нелегального содержания!


    _________________
    [Профиль] [ЛС]
    Показать сообщения:    
    Ответить на тему

    Текущее время: Сегодня, в 01:54

    Часовой пояс: GMT + 2



    Вы не можете начинать темы
    Вы не можете отвечать на сообщения
    Вы не можете редактировать свои сообщения
    Вы не можете удалять свои сообщения
    Вы не можете голосовать в опросах
    Вы не можете прикреплять файлы к сообщениям
    Вы не можете скачивать файлы