BitTorrentTracker PerecTracker.org
BitTorrentTracker PerecTracker.org
    
Регистрация  ·  Вход
 
 · 
Забыли пароль?

  • Зеленая комната / Green Room (Джереми Солнье / Jeremy Saulnier) [2015, США, Триллер, криминал, HDRip] VO (Дмитрий Есарев)

    Ответить на тему
     
    Автор Сообщение

    Light

    Создавать темы 13-Июл-2016 20:50

           

    [Цитировать]

    Зеленая комната / Green Room
    Страна: США
    Жанр: Триллер, криминал
    Год выпуска: 2015
    Продолжительность: 01:35:02
    Перевод: Одноголосый закадровый Дмитрий Есарев
    Cубтитры: нет
    Режиссер: Джереми Солнье / Jeremy Saulnier
    В ролях: Антон Ельчин (Pat), Джо Коул (Reece), Алиа Шокат (Sam), Каллум Тернер (Tiger), Дэвид В. Томпсон (Tad), Марк Веббер (Daniel), Мэйкон Блэр (Gabe), Эрик Эдельштейн (Big Justin), Майкл Дрэйпер (Stagehand), Andy Copeland (Stage Manager), Брент Уэрзнер (Werm), ЭлДжей Клинк (Guitarist)
    Описание: Панк-группа из четырех рокеров колесит из штата в штат в поисках поклонников и случайного заработка. Иногда они выступают в дешевых клубах, имея за эти концерты небольшие деньги. Ребята живут весьма скромно, однако довольны своим положением и увлекательными приключениями, которые часто встречаются на их пути. Однажды группа получила интересное предложение от скинхедов – выступить на их празднике, получив за исполнение нескольких песен хорошую зарплату. Все было замечательно, пока они не стали случайными свидетелями убийства, произошедшего в гримёрке с яркими зелеными стенами. Теперь группа в опасности, ведь они представляют угрозу для убийцы. Двери зеленой комнаты закрыты, и теперь каждый должен бороться сам за себя. Молодые люди планируют побег, однако злоумышленники предугадывают их замыслы. Скинхеды собираются жестоко расправиться с музыкантами, однако хотят сперва поиздеваться над несчастными, заставив их пережить несколько ужасных и напряженных часов. Судьба узников зеленой комнаты предрешена, и никто не может придти им на помощь…
    Сэмпл: https://yadi.sk/i/1sikiyJItFhXn
    Качество видео: HDRip (Исходник: BDRip 720p)
    Формат видео: AVI
    Видео: XviD, 608x256, (2,35:1), 23,976 fps, 1039 Кбит/с, 8 бит
    Аудио: Русский (МР3, 2 ch, 48,0 KHz, 128 Kbps)

    MediaInfo

    Общее
    Полное имя : F:\Видеофильмы\В и д е о\Зелёная комната (криминал триллер 2015г).avi
    Формат : AVI
    Формат/Информация : Audio Video Interleave
    Размер файла : 790 Мбайт
    Продолжительность : 1 ч. 35 м.
    Общий поток : 1162 Кбит/сек
    Видео
    Идентификатор : 0
    Формат : MPEG-4 Visual
    Профиль формата : Advanced Simple@L5
    Параметр BVOP формата : 2
    Параметр QPel формата : Нет
    Параметр GMC формата : Без точки перехода
    Параметр матрицы формата : Выборочная
    Идентификатор кодека : XVID
    Идентификатор кодека/Подсказка : XviD
    Продолжительность : 1 ч. 35 м.
    Битрейт : 1025 Кбит/сек
    Ширина : 608 пикселей
    Высота : 256 пикселей
    Соотношение сторон : 2,35:1
    Частота кадров : 23,976 (23976/1000) кадра/сек
    Цветовое пространство : YUV
    Субдискретизация насыщенности : 4:2:0
    Битовая глубина : 8 бит
    Тип развёртки : Прогрессивная
    Метод сжатия : С потерями
    Бит/(Пиксели*Кадры) : 0.275
    Размер потока : 696 Мбайт (88%)
    Библиотека кодирования : XviD 1.2.0.dev47 (UTC 2006-11-01)
    Аудио
    Идентификатор : 1
    Формат : MPEG Audio
    Версия формата : Version 1
    Профиль формата : Layer 3
    Идентификатор кодека : 55
    Идентификатор кодека/Подсказка : MP3
    Продолжительность : 1 ч. 35 м.
    Вид битрейта : Постоянный
    Битрейт : 128 Кбит/сек
    Каналы : 2 канала
    Частота : 48,0 КГц
    Метод сжатия : С потерями
    Размер потока : 87,0 Мбайт (11%)
    Выравнивание : Соединение по промежуткам
    Продолжительность промежутка : 42 мс. (1,00 видеокадр)
    Время предзагрузки промежутка : 504 мс.
    Библиотека кодирования : LAME3.97
    Настройки программы : -m s -V 4 -q 2 -lowpass 17 -b 128

    Скриншот c названием фильма

    Скриншоты

    Скачать .torrent

    Скачать торрент-файл бесплатно и на максимальной скорости!

    Как скачивать? · Что такое торрент? · Рейтинг и ограничения

    !ВНИМАНИЕ!
    Сайт не распространяет и не хранит электронные версии произведений, а занимается лишь лишь предоставлением доступа к создаваемому пользователями каталогу ссылок на торрент-файлы, которые содержат только списки хеш-сумм, убедительная просьба с жалобами обращаться напрямую к пользователю. Файлы для обмена на трекере предоставлены пользователями сайта, и администрация не несёт ответственности за их содержание. Просьба не заливать файлы, защищенные авторскими правами, а также файлы нелегального содержания!


    _________________
    [Профиль] [ЛС]
    Показать сообщения:    
    Ответить на тему

    Текущее время: Сегодня, в 12:16

    Часовой пояс: GMT + 2



    Вы не можете начинать темы
    Вы не можете отвечать на сообщения
    Вы не можете редактировать свои сообщения
    Вы не можете удалять свои сообщения
    Вы не можете голосовать в опросах
    Вы не можете прикреплять файлы к сообщениям
    Вы не можете скачивать файлы