Register  ·  Log in
Forgot password?

  • St.Vincent (Annie Clark) - Album De La Semaine [2014, Indie pop, Baroque pop, Art rock, HDTV 720p]

    Reply to topic
    Author Message


    Post 16-Mar-2014 12:29



    St.Vincent (Annie Clark)
    - Album De La Semaine -

    Жанр: Indie pop, Baroque pop, Art rock
    Продолжительность: 00:19:42
    Год выпуска: 2014
    Качество: HDTV 720p
    Контейнер: TS
    Видео кодек: MPEG4
    Аудио кодек: AC3
    Видео: MPEG4 Video (H264) 1920x1080 25fps 11.3 Mbps
    Аудио: Dolby AC3 48000Hz stereo 192kbps


    Энни Эрин Кларк (Annie Erin Clark; 28 сентября 1982) — американская певица, мультиинструменталист и автор-исполнитель, выступающая под псевдонимом St. Vincent. Она была участницей группы The Polyphonic Spree, а также концертного состава Суфьяна Стивенса. В настоящее время Кларк проживает на Манхэттене
    01. Rattlesnake
    02. Digital Witness
    03. Birth In Reverse
    04. Prince Johnny

    Отчёт MediaInfo / BDInfo

    GeneralID : 1 (0x1)Complete name : E:\St.Vincent - Album De La Semaine 2014.tsFormat : MPEG-TSFile size : 1.67 GiBDuration : 19mn 42sOverall bit rate mode : VariableOverall bit rate : 12.1 Mbps
    VideoID : 160 (0xA0)Menu ID : 1 (0x1)Format : AVCFormat/Info : Advanced Video CodecFormat profile : High@L4.0Format settings, CABAC : YesFormat settings, ReFrames : 4 framesCodec ID : 27Duration : 19mn 42sBit rate : 11.3 MbpsWidth : 1 920 pixelsHeight : 1 080 pixelsDisplay aspect ratio : 16:9Frame rate : 25.000 fpsColor space : YUVChroma subsampling : 4:2:0Bit depth : 8 bitsScan type : MBAFFBits/(Pixel*Frame) : 0.219Stream size : 1.56 GiB (93%)Color primaries : BT.709Transfer characteristics : BT.709Matrix coefficients : BT.709
    AudioID : 83 (0x53)Menu ID : 1 (0x1)Format : AC-3Format/Info : Audio Coding 3Mode extension : CM (complete main)Format settings, Endianness : BigCodec ID : 6Duration : 19mn 42sBit rate mode : ConstantBit rate : 192 KbpsChannel(s) : 2 channelsChannel positions : Front: L RSampling rate : 48.0 KHzBit depth : 16 bitsCompression mode : LossyStream size : 27.1 MiB (2%)Language : English


    Download .torrent

    Download free and at maximum speed!

    How to Download? · What is a torrent? · Ratings and Limitations

    The site does not extend and does not store electronic(digital) versions of products, and only gives access to a reference catalogue created by users on torrent-files which contain only lists of the hash-sums, the earnest entreaty, with complaints(abuse) to access directly to the user. Files for an exchange on tracker are given by users of a site, and the administration does not bear the responsibility for their maintenance. The request to not fill in the files protected by copyrights, and also files of the illegal maintenance!

    [Profile] [PM]
    Display posts from previous:    
    Reply to topic

    The time now is: Today 16:04

    All times are GMT + 3 Hours

    You cannot post new topics in this forum
    You cannot reply to topics in this forum
    You cannot edit your posts in this forum
    You cannot delete your posts in this forum
    You cannot vote in polls in this forum
    You cannot attach files in this forum
    You cannot download files in this forum