BitTorrentTracker PerecTracker.org
BitTorrentTracker PerecTracker.org
    
Регистрация  ·  Вход
 
 · 
Забыли пароль?

  • St.Vincent (Annie Clark) - Album De La Semaine [2014, Indie pop, Baroque pop, Art rock, HDTV 720p]

    Ответить на тему
     
    Автор Сообщение

    Columb

    Создавать темы 16-Мар-2014 11:29

           

    [Цитировать]

    St.Vincent (Annie Clark)
    - Album De La Semaine -


    Жанр: Indie pop, Baroque pop, Art rock
    Продолжительность: 00:19:42
    Год выпуска: 2014
    Качество: HDTV 720p
    Контейнер: TS
    Видео кодек: MPEG4
    Аудио кодек: AC3
    Видео: MPEG4 Video (H264) 1920x1080 25fps 11.3 Mbps
    Аудио: Dolby AC3 48000Hz stereo 192kbps

    Треклист

    Энни Эрин Кларк (Annie Erin Clark; 28 сентября 1982) — американская певица, мультиинструменталист и автор-исполнитель, выступающая под псевдонимом St. Vincent. Она была участницей группы The Polyphonic Spree, а также концертного состава Суфьяна Стивенса. В настоящее время Кларк проживает на Манхэттене
    01. Rattlesnake
    02. Digital Witness
    03. Birth In Reverse
    04. Prince Johnny

    Отчёт MediaInfo / BDInfo

    GeneralID : 1 (0x1)Complete name : E:\St.Vincent - Album De La Semaine 2014.tsFormat : MPEG-TSFile size : 1.67 GiBDuration : 19mn 42sOverall bit rate mode : VariableOverall bit rate : 12.1 Mbps
    VideoID : 160 (0xA0)Menu ID : 1 (0x1)Format : AVCFormat/Info : Advanced Video CodecFormat profile : High@L4.0Format settings, CABAC : YesFormat settings, ReFrames : 4 framesCodec ID : 27Duration : 19mn 42sBit rate : 11.3 MbpsWidth : 1 920 pixelsHeight : 1 080 pixelsDisplay aspect ratio : 16:9Frame rate : 25.000 fpsColor space : YUVChroma subsampling : 4:2:0Bit depth : 8 bitsScan type : MBAFFBits/(Pixel*Frame) : 0.219Stream size : 1.56 GiB (93%)Color primaries : BT.709Transfer characteristics : BT.709Matrix coefficients : BT.709
    AudioID : 83 (0x53)Menu ID : 1 (0x1)Format : AC-3Format/Info : Audio Coding 3Mode extension : CM (complete main)Format settings, Endianness : BigCodec ID : 6Duration : 19mn 42sBit rate mode : ConstantBit rate : 192 KbpsChannel(s) : 2 channelsChannel positions : Front: L RSampling rate : 48.0 KHzBit depth : 16 bitsCompression mode : LossyStream size : 27.1 MiB (2%)Language : English

    Скриншоты

    Скачать .torrent

    Скачать торрент-файл бесплатно и на максимальной скорости!

    Как скачивать? · Что такое торрент? · Рейтинг и ограничения

    !ВНИМАНИЕ!
    Сайт не распространяет и не хранит электронные версии произведений, а занимается лишь лишь предоставлением доступа к создаваемому пользователями каталогу ссылок на торрент-файлы, которые содержат только списки хеш-сумм, убедительная просьба с жалобами обращаться напрямую к пользователю. Файлы для обмена на трекере предоставлены пользователями сайта, и администрация не несёт ответственности за их содержание. Просьба не заливать файлы, защищенные авторскими правами, а также файлы нелегального содержания!

    [Профиль] [ЛС]
    Показать сообщения:    
    Ответить на тему

    Текущее время: Сегодня, в 16:29

    Часовой пояс: GMT + 2



    Вы не можете начинать темы
    Вы не можете отвечать на сообщения
    Вы не можете редактировать свои сообщения
    Вы не можете удалять свои сообщения
    Вы не можете голосовать в опросах
    Вы не можете прикреплять файлы к сообщениям
    Вы не можете скачивать файлы