BitTorrentTracker PerecTracker.org
BitTorrentTracker PerecTracker.org
    
Регистрация  ·  Вход
 
 · 
Забыли пароль?

  • Моя земля / Под песком / Under sandet / Unter dem Sand / Land Of Mine (Мартин Зандвлиет / Martin Zandvliet) [2015, Дания, Германия, драма, военный, BDRip 720p] [ITA Transfer] VO (zamez) + 4x Sub (Rus, Eng, Ger, Dan) + Original (Ger, Dan, Eng)

    Ответить на тему
     
    Автор Сообщение

    Light

    Создавать темы 12-Июл-2016 16:00

           

    [Цитировать]

    Моя земля / Под песком
    Under sandet / Unter dem Sand / Land Of Mine

    Страна: Дания, Германия
    Жанр: драма, военный, история
    Год выпуска: 2015
    Продолжительность: 01:41:22
    Перевод: Одноголосый закадровый zamez
    Cубтитры: русские adelstein_s, английские, 2x Forced (немецкие, датские на иностранную речь)
    Оригинальная аудиодорожка: немецкий, датский, английский
    -
    Режиссер: Мартин Зандвлиет / Martin Zandvliet
    В ролях: Роланд Мюллер, Миккель Боэ Фёльсгор, Лаура Бро, Луис Хофманн, Йоэль Басман, Леон Сидел, Александер Зайдель
    -
    Описание: Дания, май 1945 г. Для очистки датского западного побережья от немецких наземных мин привлечены две тысячи немецких военнопленных. В распоряжение сержанта датской армии Карла Рассмусена поступают 14 юнцов. Они вынуждены учиться нелёгкому сапёрному делу, в котором ошибаются только один раз...

    Тип релиза: BDRip 720p
    Контейнер: MKV
    Видео: H.264 / NTSC 16:9 / 1280x536 (2,40:1) / 5078 kbps / 24 fps / 0.308 bit/pixel / High@L4.1
    Аудио 1: Russian / Dolby Digital Audio / 5.1 Ch / 48 kHz / 448 kbps / 16 bit / VO
    Аудио 2: Multi (Ger, Dan, Eng) / Dolby Digital Audio / 5.1 Ch / 48 kHz / 640 kbps / 16 bit / Original
    Формат субтитров: softsub (SRT)
    Навигация по главам: есть

    x264 info

    x264 [info]: frame I:1021 Avg QP:12.00 size:114281
    x264 [info]: frame P:32630 Avg QP:13.86 size: 50824
    x264 [info]: frame B:112339 Avg QP:15.81 size: 18572
    x264 [info]: consecutive B-frames: 2.2% 3.2% 9.0% 23.1% 18.0% 31.8% 5.9% 3.1% 3.8%

    Source vs. Encode

    Примечание

    Итальянский дубляж с диска убрал, субтитры все пересобрал, немецких форсированных всего - 103 диалога (на датскую речь, на немецкую их нет)

    MediaInfo

    Общее
    Уникальный идентификатор                 : 202508502412783316105878482289132739723 (0x9859B80873EA62E2A6084F9195BE9C8B)
    Полное имя                               : D:\Under sandet.2015.BDRip.720p.mkv
    Формат                                   : Matroska
    Версия формата                           : Version 4 / Version 2
    Размер файла                             : 4,37 Гбайт
    Продолжительность                        : 1 ч. 41 м.
    Общий поток                              : 6167 Кбит/сек
    Название фильма                          : Release for RuTracker © flaSI-I
    Дата кодирования                         : UTC 2016-07-11 16:22:50
    Программа кодирования                    : mkvmerge v9.2.0 ('Photograph') 64bit
    Библиотека кодирования                   : libebml v1.3.3 + libmatroska v1.4.4
    Видео
    Идентификатор                            : 1
    Формат                                   : AVC
    Формат/Информация                        : Advanced Video Codec
    Профиль формата                          : High@L4.1
    Параметр CABAC формата                   : Да
    Параметр ReFrames формата                : 12 кадров
    Идентификатор кодека                     : V_MPEG4/ISO/AVC
    Продолжительность                        : 1 ч. 41 м.
    Битрейт                                  : 5078 Кбит/сек
    Ширина                                   : 1280 пикселей
    Высота                                   : 536 пикселей
    Соотношение сторон                       : 2,40:1
    Режим частоты кадров                     : Постоянный
    Частота кадров                           : 24,000 кадра/сек
    Цветовое пространство                    : YUV
    Субдискретизация насыщенности            : 4:2:0
    Битовая глубина                          : 8 бит
    Тип развёртки                            : Прогрессивная
    Бит/(Пиксели*Кадры)                      : 0.308
    Размер потока                            : 3,60 Гбайт (82%)
    Библиотека кодирования                   : x264 core 146 r2538 121396c
    Настройки программы                      : cabac=1 / ref=12 / deblock=1:-3:-3 / analyse=0x3:0x133 / me=umh / subme=10 / psy=1 / psy_rd=1.00:0.00 / mixed_ref=1 / me_range=32 / chroma_me=1 / trellis=2 / 8x8dct=1 / cqm=0 / deadzone=21,11 / fast_pskip=0 / chroma_qp_offset=-2 / threads=6 / lookahead_threads=1 / sliced_threads=0 / nr=0 / decimate=0 / interlaced=0 / bluray_compat=0 / constrained_intra=0 / bframes=8 / b_pyramid=2 / b_adapt=2 / b_bias=0 / direct=3 / weightb=1 / open_gop=0 / weightp=2 / keyint=250 / keyint_min=24 / scenecut=40 / intra_refresh=0 / rc=crf / mbtree=0 / crf=15.0 / qcomp=0.60 / qpmin=0 / qpmax=69 / qpstep=4 / ip_ratio=1.40 / pb_ratio=1.30 / aq=3:0.80
    Язык                                     : German
    Default                                  : Да
    Forced                                   : Нет
    Аудио #1
    Идентификатор                            : 2
    Формат                                   : AC-3
    Формат/Информация                        : Audio Coding 3
    Расширение режима                        : CM (complete main)
    Параметр Endianness формата              : Big
    Идентификатор кодека                     : A_AC3
    Продолжительность                        : 1 ч. 41 м.
    Вид битрейта                             : Постоянный
    Битрейт                                  : 448 Кбит/сек
    Каналы                                   : 6 каналов
    Расположение каналов                     : Front: L C R, Side: L R, LFE
    Частота                                  : 48,0 КГц
    Частота кадров                           : 31,250 кадров/сек (1536 spf)
    Метод сжатия                             : С потерями
    Размер потока                            : 324 Мбайт (7%)
    Заголовок                                : VO / zamez
    Язык                                     : Russian
    Default                                  : Да
    Forced                                   : Нет
    Аудио #2
    Идентификатор                            : 3
    Формат                                   : AC-3
    Формат/Информация                        : Audio Coding 3
    Расширение режима                        : CM (complete main)
    Параметр Endianness формата              : Big
    Идентификатор кодека                     : A_AC3
    Продолжительность                        : 1 ч. 41 м.
    Вид битрейта                             : Постоянный
    Битрейт                                  : 640 Кбит/сек
    Каналы                                   : 6 каналов
    Расположение каналов                     : Front: L C R, Side: L R, LFE
    Частота                                  : 48,0 КГц
    Частота кадров                           : 31,250 кадров/сек (1536 spf)
    Метод сжатия                             : С потерями
    Размер потока                            : 464 Мбайт (10%)
    Заголовок                                : Original
    Язык                                     : Несколько языков
    Default                                  : Нет
    Forced                                   : Нет
    Текст #1
    Идентификатор                            : 4
    Формат                                   : UTF-8
    Идентификатор кодека                     : S_TEXT/UTF8
    Идентификатор кодека/Информация          : UTF-8 Plain Text
    Продолжительность                        : 1 ч. 34 м.
    Битрейт                                  : 57 бит/сек
    Count of elements                        : 672
    Размер потока                            : 39,9 Кбайт (0%)
    Заголовок                                : adelstein_s
    Язык                                     : Russian
    Default                                  : Нет
    Forced                                   : Нет
    Текст #2
    Идентификатор                            : 5
    Формат                                   : UTF-8
    Идентификатор кодека                     : S_TEXT/UTF8
    Идентификатор кодека/Информация          : UTF-8 Plain Text
    Продолжительность                        : 1 ч. 34 м.
    Битрейт                                  : 31 бит/сек
    Count of elements                        : 670
    Размер потока                            : 21,7 Кбайт (0%)
    Заголовок                                : ENGLiSH
    Язык                                     : English
    Default                                  : Нет
    Forced                                   : Нет
    Текст #3
    Идентификатор                            : 6
    Формат                                   : UTF-8
    Идентификатор кодека                     : S_TEXT/UTF8
    Идентификатор кодека/Информация          : UTF-8 Plain Text
    Продолжительность                        : 1 ч. 34 м.
    Битрейт                                  : 6 бит/сек
    Count of elements                        : 103
    Размер потока                            : 4,55 Кбайт (0%)
    Заголовок                                : Original / Forced
    Язык                                     : German
    Default                                  : Нет
    Forced                                   : Нет
    Текст #4
    Идентификатор                            : 7
    Формат                                   : UTF-8
    Идентификатор кодека                     : S_TEXT/UTF8
    Идентификатор кодека/Информация          : UTF-8 Plain Text
    Продолжительность                        : 1 ч. 32 м.
    Битрейт                                  : 27 бит/сек
    Count of elements                        : 575
    Размер потока                            : 18,5 Кбайт (0%)
    Заголовок                                : DANiSH / Forced
    Язык                                     : Danish
    Default                                  : Нет
    Forced                                   : Нет
    Меню
    00:00:00.000                             : en:00:00:00.000
    00:01:38.042                             : en:00:01:38.042
    00:07:02.958                             : en:00:07:02.958
    00:11:25.667                             : en:00:11:25.667
    00:18:15.958                             : en:00:18:15.958
    00:22:58.875                             : en:00:22:58.875
    00:28:15.375                             : en:00:28:15.375
    00:34:04.250                             : en:00:34:04.250
    00:39:08.458                             : en:00:39:08.458
    00:45:48.458                             : en:00:45:48.458
    00:51:09.250                             : en:00:51:09.250
    00:56:47.000                             : en:00:56:47.000
    01:03:13.917                             : en:01:03:13.917
    01:07:33.125                             : en:01:07:33.125
    01:13:37.667                             : en:01:13:37.667
    01:18:17.042                             : en:01:18:17.042
    01:20:26.542                             : en:01:20:26.542
    01:25:22.167                             : en:01:25:22.167
    01:31:34.083                             : en:01:31:34.083
    01:35:51.500                             : en:01:35:51.500

    Скриншоты

    Скачать .torrent

    Скачать торрент-файл бесплатно и на максимальной скорости!

    Как скачивать? · Что такое торрент? · Рейтинг и ограничения

    !ВНИМАНИЕ!
    Сайт не распространяет и не хранит электронные версии произведений, а занимается лишь лишь предоставлением доступа к создаваемому пользователями каталогу ссылок на торрент-файлы, которые содержат только списки хеш-сумм, убедительная просьба с жалобами обращаться напрямую к пользователю. Файлы для обмена на трекере предоставлены пользователями сайта, и администрация не несёт ответственности за их содержание. Просьба не заливать файлы, защищенные авторскими правами, а также файлы нелегального содержания!


    _________________
    [Профиль] [ЛС]
    Показать сообщения:    
    Ответить на тему

    Текущее время: Сегодня, в 00:19

    Часовой пояс: GMT + 2



    Вы не можете начинать темы
    Вы не можете отвечать на сообщения
    Вы не можете редактировать свои сообщения
    Вы не можете удалять свои сообщения
    Вы не можете голосовать в опросах
    Вы не можете прикреплять файлы к сообщениям
    Вы не можете скачивать файлы