BitTorrentTracker PerecTracker.org
BitTorrentTracker PerecTracker.org
    
Регистрация  ·  Вход
 
 · 
Забыли пароль?

  • Мешки для трупов / Body Bags (Джон Карпентер / John Carpenter, Тоуб Хупер / Tobe Hooper, Ларри Салкис / Larry Sulkis) [1993, США, Ужасы, триллер, комедия, BDRemux 1080p] [Расширенная версия] MVO (СТС) + AVO (Горчаков) + Sub Rus, Eng + Original Eng

    Ответить на тему
     
    Автор Сообщение

    Light

    Создавать темы 12-Июл-2016 16:00

           

    [Цитировать]

    -Мешки для трупов / Body Bags / Расширенная версия-Страна: США
    Студия: Showtime Networks Inc.
    Жанр: Ужасы, триллер, комедия
    Год выпуска: 1993
    Продолжительность: 01:34:22-Перевод: Профессиональный (многоголосый закадровый) СТС
    Перевод 2: Авторский (одноголосый закадровый) Василий Горчаков
    Cубтитры: русские (форсированные и полные)
    Оригинальная аудиодорожка: английский-Режиссер: Джон Карпентер / John Carpenter, Тоуб Хупер / Tobe Hooper, Ларри Салкис / Larry Sulkis
    В ролях: Джон Карпентер, Том Арнольд, Тоуб Хупер, Роберт Кэрредин, Алекс Дэтчер, Питер Джейсон, Молли Чик, Уэс Крэйвен, Сэм Рэйми, Дэвид Нотон-Описание: Фильм мастеров жанра (Джона Карпентера и Тоуба Хупера) состоит их трех историй "Заправка", "Волосы" и "Глаз", которые объединяет одно - смерть. В первой новелле, «Бензоколонка», материализуются ужасы симпатичной афроамериканки, настоящей королевы автозаправки, заступившей на дежурство в ночную смену. Во второй новелле, «Волосы», стареющий жуир, озабоченный появлением лысины, получает столь радикальное средство для роста волос, что от ужаса волосы дыбом встают! В третьей новелле, с названием «Глаз» — попавшему в аварию бейсболисту вживляют глаз мертвеца, и он начинает видеть такое, что его настоящий глаз вовек не видывал…-Сэмпл-Тип релиза: BDRemux 1080p
    Контейнер: MKV
    Видео: MPEG-4 AVC Video 30000 kbps 1080p / 23,976 fps / 16:9 / High Profile 4.1
    Аудио: Russian / Dolby Digital Audio / 2.0 / 48 kHz / 192 kbps
    Аудио 2: Russian / Dolby Digital Audio / 2.0 / 48 kHz / 192 kbps
    Аудио 3: DTS-HD Master Audio English 5.1 / 48 kHz / 3493 kbps / 24-bit (DTS Core: 5.1 / 48 kHz / 1509 kbps / 24-bit)
    Формат субтитров: softsub (SRT)

    MI

    GeneralUnique ID : 234033424775544123276004188453564295829 (0xB01132B5206582E29B98375F3D8BAA95)Complete name : P:\[По режиссерам]\+ John Carpenter\Мешки для трупов (1993. Body Bags).mkvFormat : MatroskaFormat version : Version 4 / Version 2File size : 22.3 GiBDuration : 1h 34mnOverall bit rate mode : VariableOverall bit rate : 33.9 MbpsMovie name : Release for RuTrackerEncoded date : UTC 2016-07-11 19:05:17Writing application : mkvmerge v9.0.1 ('Obstacles') 64bitWriting library : libebml v1.3.3 + libmatroska v1.4.4Cover : YesAttachments : Cover.jpg
    VideoID : 1Format : AVCFormat/Info : Advanced Video CodecFormat profile : High@L4.1Format settings, CABAC : YesFormat settings, ReFrames : 3 framesCodec ID : V_MPEG4/ISO/AVCDuration : 1h 34mnBit rate mode : VariableBit rate : 30.0 MbpsMaximum bit rate : 35.0 MbpsWidth : 1 920 pixelsHeight : 1 080 pixelsDisplay aspect ratio : 16:9Frame rate mode : ConstantFrame rate : 23.976 (24000/1001) fpsStandard : NTSCColor space : YUVChroma subsampling : 4:2:0Bit depth : 8 bitsScan type : ProgressiveBits/(Pixel*Frame) : 0.603Stream size : 19.8 GiB (89%)Title : BODY_BAGS_REPOPOLanguage : EnglishDefault : YesForced : NoColor range : LimitedColor primaries : BT.709Transfer characteristics : BT.709Matrix coefficients : BT.709
    Audio #1ID : 2Format : AC-3Format/Info : Audio Coding 3Mode extension : CM (complete main)Format settings, Endianness : BigCodec ID : A_AC3Duration : 1h 34mnBit rate mode : ConstantBit rate : 192 KbpsChannel(s) : 2 channelsChannel positions : Front: L RSampling rate : 48.0 KHzFrame rate : 31.250 fps (1536 spf)Compression mode : LossyStream size : 130 MiB (1%)Title : MVO [CTC]Language : RussianDefault : YesForced : No
    Audio #2ID : 3Format : AC-3Format/Info : Audio Coding 3Mode extension : CM (complete main)Format settings, Endianness : BigCodec ID : A_AC3Duration : 1h 34mnBit rate mode : ConstantBit rate : 192 KbpsChannel(s) : 2 channelsChannel positions : Front: L RSampling rate : 48.0 KHzFrame rate : 31.250 fps (1536 spf)Compression mode : LossyStream size : 130 MiB (1%)Title : Василий ГорчаковLanguage : RussianDefault : NoForced : No
    Audio #3ID : 4Format : DTSFormat/Info : Digital Theater SystemsFormat profile : MA / CoreMode : 16Format settings, Endianness : BigCodec ID : A_DTSDuration : 1h 34mnBit rate mode : Variable / ConstantBit rate : 3 493 Kbps / 1 509 KbpsChannel(s) : 6 channelsChannel positions : Front: L C R, Side: L R, LFESampling rate : 48.0 KHzFrame rate : 93.750 fps (512 spf)Bit depth : 24 bitsCompression mode : Lossless / LossyStream size : 2.30 GiB (10%)Language : EnglishDefault : NoForced : No
    Text #1ID : 5Format : UTF-8Codec ID : S_TEXT/UTF8Codec ID/Info : UTF-8 Plain TextDuration : 1h 24mnBit rate : 3 bpsCount of elements : 41Stream size : 2.13 KiB (0%)Title : ForcedLanguage : RussianDefault : YesForced : No
    Text #2ID : 6Format : UTF-8Codec ID : S_TEXT/UTF8Codec ID/Info : UTF-8 Plain TextDuration : 1h 33mnBit rate : 72 bpsCount of elements : 844Stream size : 49.6 KiB (0%)Title : FullLanguage : RussianDefault : NoForced : No
    Text #3ID : 7Format : UTF-8Codec ID : S_TEXT/UTF8Codec ID/Info : UTF-8 Plain TextDuration : 1h 30mnBit rate : 46 bpsCount of elements : 1029Stream size : 30.8 KiB (0%)Language : EnglishDefault : NoForced : No
    Menu00:00:00.000 : en:Chapter 100:06:15.000 : en:Chapter 200:13:45.825 : en:Chapter 300:20:36.235 : en:Chapter 400:26:40.224 : en:Chapter 500:33:11.990 : en:Chapter 600:42:14.532 : en:Chapter 700:48:26.904 : en:Chapter 800:55:14.311 : en:Chapter 901:04:37.874 : en:Chapter 1001:13:12.013 : en:Chapter 1101:23:52.653 : en:Chapter 1201:31:34.114 : en:Chapter 13

    Скриншоты


    Зеркало


    Цитата:

    • Исходник: BODY_BAGS_REPOPO с PTP. Thx HolyPiet!
    • По ТВ шла сильно порезанная версия, так что есть места без перевода. На них имеются форсированные сабы. Сам перевод сабов я подправил в паре мест, т.к. он был некорректен (скорее всего, переводили вслепую, не смотря фильм).
    • Озвучка Горчакова . Спасибо 4.7Gb! Причем, она на полную версию, и мест без перевода нет.
    • Полные русские сабы найдены в сети. Перевод DENnv. Они были только на порезанную версию, так что я дополнил их и подогнал.
    • Сохранены оригинальные чаптеры как на Blu-ray.
    Скачать .torrent

    Скачать торрент-файл бесплатно и на максимальной скорости!

    Как скачивать? · Что такое торрент? · Рейтинг и ограничения

    !ВНИМАНИЕ!
    Сайт не распространяет и не хранит электронные версии произведений, а занимается лишь лишь предоставлением доступа к создаваемому пользователями каталогу ссылок на торрент-файлы, которые содержат только списки хеш-сумм, убедительная просьба с жалобами обращаться напрямую к пользователю. Файлы для обмена на трекере предоставлены пользователями сайта, и администрация не несёт ответственности за их содержание. Просьба не заливать файлы, защищенные авторскими правами, а также файлы нелегального содержания!


    _________________
    [Профиль] [ЛС]
    Показать сообщения:    
    Ответить на тему

    Текущее время: Сегодня, в 21:48

    Часовой пояс: GMT + 2



    Вы не можете начинать темы
    Вы не можете отвечать на сообщения
    Вы не можете редактировать свои сообщения
    Вы не можете удалять свои сообщения
    Вы не можете голосовать в опросах
    Вы не можете прикреплять файлы к сообщениям
    Вы не можете скачивать файлы