BitTorrentTracker PerecTracker.org
BitTorrentTracker PerecTracker.org
    
Регистрация  ·  Вход
 
 · 
Забыли пароль?

  • Зловещая луна / Bad Moon (Эрик Ред / Eric Red) [1996, США, ужасы, фэнтези, BDRemux 1080p] Dub (Варус Видео) + DVO (СТС) + AVO (Кузнецов) + Sub Eng + Original Eng

    Ответить на тему
     
    Автор Сообщение

    Light

    Создавать темы 12-Июл-2016 16:00

           

    [Цитировать]

    -Зловещая луна / Bad Moon-Страна: США
    Жанр: ужасы, фэнтези
    Год выпуска: 1996
    Продолжительность: 01:19:52-Перевод: Профессиональный (дублированный) Варус Видео
    Перевод 2: Профессиональный (двухголосый закадровый) СТС
    Перевод 3: Авторский (одноголосый закадровый) Сергей Кузнецов
    Cубтитры: английские
    Оригинальная аудиодорожка: английский-Режиссер: Эрик Ред / Eric Red
    В ролях: Мэриэл Хемингуэй, Майкл Паре, Мейсон Гэмбл, Кен Поуг, Хротгар Мэтьюз, Джоанна Лебовиц, Гэвин Бур, Джулия Монтгомери Браун, Примо-Описание: На северо-западе Канады, среди дремучих лесов, ночами, когда восходит зловеще - багровая луна, наступает ужас... Свирепое чудовище, полузверь - получеловек, выходит на охоту за своими жертвами. В тех же краях в живописном и уединенном месте проживают в своем семейном особняке Джанет, взрослая женщина, со своим десятилетним сыном Бреттом и овчаркой Тором. Однажды их навещает Тэд Харрисон, брат Джанет, по профессии фотокорреспондент-натуралист. До этого он долго отсутствовал, работая по контракту в Юго-Восточной Азии..-Сэмпл-Тип релиза: BDRemux 1080p
    Контейнер: MKV
    Видео: MPEG-4 AVC Video / 27987 kbps / 1080p / 23.976 fps / 16:9 / High Profile 4.1
    Аудио: Russian / Dolby Digital Audio / 2.0 / 48 kHz / 192 kbps | Варус Видео
    Аудио 2: Russian / Dolby Digital Audio / 2.0 / 48 kHz / 192 kbps | СТС
    Аудио 3: Russian / DTS-HD Master Audio / 5.1 / 48 kHz / 2254 kbps / 16-bit (DTS Core: 5.1 / 48 kHz / 1509 kbps / 16-bit) | Сергей Кузнецов
    Аудио 4: English / DTS-HD Master Audio / 5.1 / 48 kHz / 2346 kbps / 24-bit (DTS Core: 5.1 / 48 kHz / 1509 kbps / 24-bit)
    Аудио 4: English / AAC / 2.0 / 48 kHz / 78.5 kbps - Commentary with Director Eric Red
    Формат субтитров: softsub (SRT)

    MI

    GeneralUnique ID : 213283343488834811897678559868295239259 (0xA074E0B69C542FB89F363B6B30D6D65B)Complete name : Z:\На хранении\Зловещая луна (1996. Bad Moon).mkvFormat : MatroskaFormat version : Version 4 / Version 2File size : 13.7 GiBDuration : 1h 19mnOverall bit rate mode : VariableOverall bit rate : 24.5 MbpsMovie name : Release for RuTrackerEncoded date : UTC 2016-07-11 20:15:53Writing application : mkvmerge v9.0.1 ('Obstacles') 64bitWriting library : libebml v1.3.3 + libmatroska v1.4.4Cover : YesAttachments : cover.png
    VideoID : 1Format : AVCFormat/Info : Advanced Video CodecFormat profile : High@L4.1Format settings, CABAC : YesFormat settings, ReFrames : 2 framesFormat settings, GOP : M=1, N=5Codec ID : V_MPEG4/ISO/AVCDuration : 1h 19mnBit rate mode : VariableBit rate : 19.4 MbpsMaximum bit rate : 28.1 MbpsWidth : 1 920 pixelsHeight : 1 080 pixelsDisplay aspect ratio : 16:9Frame rate mode : ConstantFrame rate : 23.976 (24000/1001) fpsColor space : YUVChroma subsampling : 4:2:0Bit depth : 8 bitsScan type : ProgressiveBits/(Pixel*Frame) : 0.391Stream size : 10.8 GiB (79%)Title : BAD_MOON_1996_REMUX_HDCLUBLanguage : EnglishDefault : YesForced : No
    Audio #1ID : 2Format : AC-3Format/Info : Audio Coding 3Mode extension : CM (complete main)Format settings, Endianness : BigCodec ID : A_AC3Duration : 1h 19mnBit rate mode : ConstantBit rate : 192 KbpsChannel(s) : 2 channelsChannel positions : Front: L RSampling rate : 48.0 KHzFrame rate : 31.250 fps (1536 spf)Compression mode : LossyStream size : 110 MiB (1%)Title : Дубляж [Варус Видео]Language : RussianDefault : YesForced : No
    Audio #2ID : 3Format : AC-3Format/Info : Audio Coding 3Mode extension : CM (complete main)Format settings, Endianness : BigCodec ID : A_AC3Duration : 1h 19mnBit rate mode : ConstantBit rate : 192 KbpsChannel(s) : 2 channelsChannel positions : Front: L RSampling rate : 48.0 KHzFrame rate : 31.250 fps (1536 spf)Compression mode : LossyStream size : 110 MiB (1%)Title : DVO [СТС]Language : RussianDefault : NoForced : No
    Audio #3ID : 4Format : DTSFormat/Info : Digital Theater SystemsFormat profile : MA / CoreMode : 16Format settings, Endianness : BigCodec ID : A_DTSDuration : 1h 19mnBit rate mode : Variable / ConstantBit rate : 2 254 Kbps / 1 509 KbpsChannel(s) : 6 channelsChannel positions : Front: L C R, Side: L R, LFESampling rate : 48.0 KHzFrame rate : 93.750 fps (512 spf)Bit depth : 16 bitsCompression mode : Lossless / LossyStream size : 1.26 GiB (9%)Title : Cергей КузнецовLanguage : RussianDefault : NoForced : No
    Audio #4ID : 5Format : DTSFormat/Info : Digital Theater SystemsFormat profile : MA / CoreMode : 16Format settings, Endianness : BigCodec ID : A_DTSDuration : 1h 19mnBit rate mode : Variable / ConstantBit rate : 2 349 Kbps / 1 509 KbpsChannel(s) : 6 channelsChannel positions : Front: L C R, Side: L R, LFESampling rate : 48.0 KHzFrame rate : 93.750 fps (512 spf)Bit depth : 24 bitsCompression mode : Lossless / LossyStream size : 1.31 GiB (10%)Language : EnglishDefault : NoForced : No
    Audio #5ID : 6Format : AACFormat/Info : Advanced Audio CodecFormat profile : HE-AAC / LCCodec ID : A_AACDuration : 1h 19mnBit rate : 78.5 KbpsChannel(s) : 2 channelsChannel positions : Front: L RSampling rate : 48.0 KHz / 24.0 KHzFrame rate : 23.438 fps (1024 spf)Compression mode : LossyDelay relative to video : 31msStream size : 44.6 MiB (0%)Title : Commentary with Director Eric RedLanguage : EnglishDefault : NoForced : No
    Text #1ID : 7Format : UTF-8Codec ID : S_TEXT/UTF8Codec ID/Info : UTF-8 Plain TextDuration : 1h 14mnBit rate : 32 bpsCount of elements : 620Stream size : 18.1 KiB (0%)Language : EnglishDefault : NoForced : No
    Text #2ID : 8Format : UTF-8Codec ID : S_TEXT/UTF8Codec ID/Info : UTF-8 Plain TextDuration : 1h 15mnBit rate : 35 bpsCount of elements : 710Stream size : 19.8 KiB (0%)Title : SDHLanguage : EnglishDefault : NoForced : No
    Menu00:00:00.000 : en:Chapter 100:06:04.573 : en:Chapter 200:12:19.197 : en:Chapter 300:17:40.101 : en:Chapter 400:23:52.181 : en:Chapter 500:30:00.799 : en:Chapter 600:37:20.864 : en:Chapter 700:42:52.320 : en:Chapter 800:48:51.262 : en:Chapter 900:54:29.558 : en:Chapter 1001:02:23.448 : en:Chapter 1101:08:40.867 : en:Chapter 12

    Скриншоты


    Цитата:

    • Релиз Cupper и
    • Дорожка №3 была получена путем наложения чистого голоса на центральный канал оригинала
    • Сохранены оригинальные главы как на Blu-ray
    Скачать .torrent

    Скачать торрент-файл бесплатно и на максимальной скорости!

    Как скачивать? · Что такое торрент? · Рейтинг и ограничения

    !ВНИМАНИЕ!
    Сайт не распространяет и не хранит электронные версии произведений, а занимается лишь лишь предоставлением доступа к создаваемому пользователями каталогу ссылок на торрент-файлы, которые содержат только списки хеш-сумм, убедительная просьба с жалобами обращаться напрямую к пользователю. Файлы для обмена на трекере предоставлены пользователями сайта, и администрация не несёт ответственности за их содержание. Просьба не заливать файлы, защищенные авторскими правами, а также файлы нелегального содержания!


    _________________
    [Профиль] [ЛС]
    Показать сообщения:    
    Ответить на тему

    Текущее время: Сегодня, в 12:26

    Часовой пояс: GMT + 2



    Вы не можете начинать темы
    Вы не можете отвечать на сообщения
    Вы не можете редактировать свои сообщения
    Вы не можете удалять свои сообщения
    Вы не можете голосовать в опросах
    Вы не можете прикреплять файлы к сообщениям
    Вы не можете скачивать файлы