BitTorrentTracker PerecTracker.org
BitTorrentTracker PerecTracker.org
    
Регистрация  ·  Вход
 
 · 
Забыли пароль?

  • Преимущество / Выгода / Advantageous (Дженнифер Фанг / Jennifer Phang) [2015, США, Драма, фантастика, WEBRip] DVO (Kris & Aleister)

    Ответить на тему
     
    Автор Сообщение

    Light

    Создавать темы 12-Июл-2016 11:48

           

    [Цитировать]

    Преимущество / Выгода / Advantageous
    Страна: США
    Жанр: Драма, фантастика
    Год выпуска: 2015
    Продолжительность: 01:31:33
    Перевод: Любительский (двухголосый закадровый) Kris & Aleister
    Cубтитры: нет
    Режиссер: Дженнифер Фанг / Jennifer Phang
    В ролях: Жаклин Ким, Джеймс Урбаняк, Ясмин Кази, Кен Жонг, Дженнифер Или, Саманта Ким, Трой Зи, Оливия Хортон, Дженнифер Икеда, Мерседес Гриффет
    Описание: Фантастическая драма рассказывает о безжалостном мире, в котором каждому человеку приходится прилагать невероятные усилия, чтобы просто выжить. Гвен Ко - маркетолог, которая однако не может найти работу, ведь она недостаточно молода и привлекательна для того, чтобы представлять собой крупную компанию. Она соглашается на участие в эксперименте по перемещению своего сознания в молодое тело....
    Сэмпл: http://multi-up.com/1109409
    Качество видео: WEBRip
    Формат видео: AVI
    Видео: XviD 73, 704x368, (1,85:1), 23,976 fps, 999 Кбит/с, 8 бит
    Аудио: Русский (МР3, 2 ch, 48,0 KHz, 128 Kbps)

    MediaInfo

    Общее
    Полное имя : F:\Видеофильмы\В и д е о\Преимушество (драма, фантастика 2015г).avi
    Формат : AVI
    Формат/Информация : Audio Video Interleave
    Размер файла : 744 Мбайт
    Продолжительность : 1 ч. 31 м.
    Общий поток : 1137 Кбит/сек
    Видео
    Идентификатор : 0
    Формат : MPEG-4 Visual
    Профиль формата : Advanced Simple@L5
    Параметр BVOP формата : 1
    Параметр QPel формата : Нет
    Параметр GMC формата : Без точки перехода
    Параметр матрицы формата : Выборочная
    Идентификатор кодека : XVID
    Идентификатор кодека/Подсказка : XviD
    Продолжительность : 1 ч. 31 м.
    Битрейт : 999 Кбит/сек
    Ширина : 704 пикселя
    Высота : 368 пикселей
    Соотношение сторон : 1,85:1
    Частота кадров : 23,976 (23976/1000) кадра/сек
    Цветовое пространство : YUV
    Субдискретизация насыщенности : 4:2:0
    Битовая глубина : 8 бит
    Тип развёртки : Прогрессивная
    Метод сжатия : С потерями
    Бит/(Пиксели*Кадры) : 0.161
    Размер потока : 654 Мбайт (88%)
    Библиотека кодирования : XviD 73
    Аудио
    Идентификатор : 1
    Формат : MPEG Audio
    Версия формата : Version 1
    Профиль формата : Layer 3
    Идентификатор кодека : 55
    Идентификатор кодека/Подсказка : MP3
    Продолжительность : 1 ч. 31 м.
    Вид битрейта : Постоянный
    Битрейт : 128 Кбит/сек
    Каналы : 2 канала
    Частота : 48,0 КГц
    Метод сжатия : С потерями
    Размер потока : 83,8 Мбайт (11%)
    Выравнивание : Соединение по промежуткам
    Продолжительность промежутка : 42 мс. (1,00 видеокадр)
    Время предзагрузки промежутка : 504 мс.
    Библиотека кодирования : LAME3.99r
    Настройки программы : -m s -V 4 -q 2 -lowpass 17 -b 128

    Скриншот c названием фильма

    Скриншоты

    Скачать .torrent

    Скачать торрент-файл бесплатно и на максимальной скорости!

    Как скачивать? · Что такое торрент? · Рейтинг и ограничения

    !ВНИМАНИЕ!
    Сайт не распространяет и не хранит электронные версии произведений, а занимается лишь лишь предоставлением доступа к создаваемому пользователями каталогу ссылок на торрент-файлы, которые содержат только списки хеш-сумм, убедительная просьба с жалобами обращаться напрямую к пользователю. Файлы для обмена на трекере предоставлены пользователями сайта, и администрация не несёт ответственности за их содержание. Просьба не заливать файлы, защищенные авторскими правами, а также файлы нелегального содержания!


    _________________
    [Профиль] [ЛС]
    Показать сообщения:    
    Ответить на тему

    Текущее время: Сегодня, в 14:36

    Часовой пояс: GMT + 2



    Вы не можете начинать темы
    Вы не можете отвечать на сообщения
    Вы не можете редактировать свои сообщения
    Вы не можете удалять свои сообщения
    Вы не можете голосовать в опросах
    Вы не можете прикреплять файлы к сообщениям
    Вы не можете скачивать файлы