BitTorrentTracker PerecTracker.org
BitTorrentTracker PerecTracker.org
    
Регистрация  ·  Вход
 
 · 
Забыли пароль?

  • Моя земля / Под песком / Under sandet / Unter dem Sand / Land Of Mine (Мартин Зандвлиет / Martin Zandvliet) [2015, Дания, Германия, драма, военный, BDRemux 1080p] [ITA Transfer] VO (zamez) + 4x Sub (Rus, Eng, Ger, Dan) + Original (Ger, Dan, Eng)

    Ответить на тему
     
    Автор Сообщение

    Light

    Создавать темы 11-Июл-2016 18:57

           

    [Цитировать]

    Моя земля / Под песком
    Under sandet / Unter dem Sand / Land Of Mine

    Страна: Дания, Германия
    Жанр: драма, военный, история
    Год выпуска: 2015
    Продолжительность: 01:41:22
    Перевод: Одноголосый закадровый zamez
    Cубтитры: русские adelstein_s, английские, 2x Forced (немецкие, датские на иностранную речь)
    Оригинальная аудиодорожка: немецкий, датский, английский
    -
    Режиссер: Мартин Зандвлиет / Martin Zandvliet
    В ролях: Роланд Мюллер, Миккель Боэ Фёльсгор, Лаура Бро, Луис Хофманн, Йоэль Басман, Леон Сидел, Александер Зайдель
    -
    Описание: Дания, май 1945 г. Для очистки датского западного побережья от немецких наземных мин привлечены две тысячи немецких военнопленных. В распоряжение сержанта датской армии Карла Рассмусена поступают 14 юнцов. Они вынуждены учиться нелёгкому сапёрному делу, в котором ошибаются только один раз...

    Тип релиза: BDRemux 1080p
    Контейнер: MKV
    Видео: MPEG-4 AVC / NTSC 16:9 / 1920x1080 (2.40:1) / 24580 kbps / 24 fps / 0.494 bit/pixel / High@L4.1
    Аудио 1: Russian / Dolby Digital Audio / 5.1 Ch / 48 kHz / 448 kbps / 16 bit / VO
    Аудио 2: Multi (Ger, Dan, Eng) / DTS-HD Master Audio / 5.1 Ch / 48 kHz / 3026 kbps / 24-bit (DTS Core: 5.1 Ch / 48 kHz / 1509 kbps / 24-bit) / Original
    Формат субтитров: softsub (SRT)
    Навигация по главам: есть

    Примечание

    Итальянский дубляж с диска убрал, субтитры все пересобрал, немецких форсированных всего - 103 диалога (на датскую речь, на немецкую их нет)

    MediaInfo

    Общее
    Уникальный идентификатор                 : 250297501389414070909961291938464757871 (0xBC4D8B98546BD3A3ACA946712977786F)
    Полное имя                               : D:\Under sandet.2015.BDRemux.1080p.mkv
    Формат                                   : Matroska
    Версия формата                           : Version 4 / Version 2
    Размер файла                             : 19,9 Гбайт
    Продолжительность                        : 1 ч. 41 м.
    Режим общего битрейта                    : Переменный
    Общий поток                              : 28,1 Мбит/сек
    Дата кодирования                         : UTC 2016-07-10 13:21:15
    Программа кодирования                    : mkvmerge v9.2.0 ('Photograph') 64bit
    Библиотека кодирования                   : libebml v1.3.3 + libmatroska v1.4.4
    Видео
    Идентификатор                            : 1
    Формат                                   : AVC
    Формат/Информация                        : Advanced Video Codec
    Профиль формата                          : High@L4.1
    Параметр CABAC формата                   : Да
    Параметр ReFrames формата                : 2 кадра
    Параметр GOP формата                     : M=1, N=5
    Идентификатор кодека                     : V_MPEG4/ISO/AVC
    Продолжительность                        : 1 ч. 41 м.
    Вид битрейта                             : Переменный
    Битрейт                                  : 24,6 Мбит/сек
    Максимальный битрейт                     : 32,2 Мбит/сек
    Ширина                                   : 1920 пикселей
    Высота                                   : 1080 пикселей
    Соотношение сторон                       : 16:9
    Режим частоты кадров                     : Постоянный
    Частота кадров                           : 24,000 кадра/сек
    Цветовое пространство                    : YUV
    Субдискретизация насыщенности            : 4:2:0
    Битовая глубина                          : 8 бит
    Тип развёртки                            : Прогрессивная
    Бит/(Пиксели*Кадры)                      : 0.494
    Размер потока                            : 17,4 Гбайт (88%)
    Язык                                     : German
    Default                                  : Да
    Forced                                   : Нет
    Аудио #1
    Идентификатор                            : 2
    Формат                                   : AC-3
    Формат/Информация                        : Audio Coding 3
    Расширение режима                        : CM (complete main)
    Параметр Endianness формата              : Big
    Идентификатор кодека                     : A_AC3
    Продолжительность                        : 1 ч. 41 м.
    Вид битрейта                             : Постоянный
    Битрейт                                  : 448 Кбит/сек
    Каналы                                   : 6 каналов
    Расположение каналов                     : Front: L C R, Side: L R, LFE
    Частота                                  : 48,0 КГц
    Частота кадров                           : 31,250 кадров/сек (1536 spf)
    Метод сжатия                             : С потерями
    Размер потока                            : 324 Мбайт (2%)
    Заголовок                                : VO / zamez
    Язык                                     : Russian
    Default                                  : Да
    Forced                                   : Нет
    Аудио #2
    Идентификатор                            : 3
    Формат                                   : DTS
    Формат/Информация                        : Digital Theater Systems
    Профиль формата                          : MA / Core
    Режим                                    : 16
    Параметр Endianness формата              : Big
    Идентификатор кодека                     : A_DTS
    Продолжительность                        : 1 ч. 41 м.
    Вид битрейта                             : Переменный / Постоянный
    Битрейт                                  : 3072 Кбит/сек / 1509 Кбит/сек
    Каналы                                   : 6 каналов
    Расположение каналов                     : Front: L C R, Side: L R, LFE
    Частота                                  : 48,0 КГц
    Частота кадров                           : 93,750 кадра/сек (512 spf)
    Битовая глубина                          : 24 бит
    Метод сжатия                             : Без потерь / Lossy
    Размер потока                            : 2,14 Гбайт (11%)
    Заголовок                                : Original
    Язык                                     : German
    Default                                  : Нет
    Forced                                   : Нет
    Текст #1
    Идентификатор                            : 4
    Формат                                   : UTF-8
    Идентификатор кодека                     : S_TEXT/UTF8
    Идентификатор кодека/Информация          : UTF-8 Plain Text
    Продолжительность                        : 1 ч. 34 м.
    Битрейт                                  : 57 бит/сек
    Count of elements                        : 672
    Размер потока                            : 39,9 Кбайт (0%)
    Заголовок                                : adelstein_s
    Язык                                     : Russian
    Default                                  : Нет
    Forced                                   : Нет
    Текст #2
    Идентификатор                            : 5
    Формат                                   : UTF-8
    Идентификатор кодека                     : S_TEXT/UTF8
    Идентификатор кодека/Информация          : UTF-8 Plain Text
    Продолжительность                        : 1 ч. 34 м.
    Битрейт                                  : 31 бит/сек
    Count of elements                        : 670
    Размер потока                            : 21,7 Кбайт (0%)
    Заголовок                                : ENGLiSH
    Язык                                     : English
    Default                                  : Нет
    Forced                                   : Нет
    Текст #3
    Идентификатор                            : 6
    Формат                                   : UTF-8
    Идентификатор кодека                     : S_TEXT/UTF8
    Идентификатор кодека/Информация          : UTF-8 Plain Text
    Продолжительность                        : 1 ч. 34 м.
    Битрейт                                  : 6 бит/сек
    Count of elements                        : 103
    Размер потока                            : 4,55 Кбайт (0%)
    Заголовок                                : Original / Forced
    Язык                                     : German
    Default                                  : Нет
    Forced                                   : Нет
    Текст #4
    Идентификатор                            : 7
    Формат                                   : UTF-8
    Идентификатор кодека                     : S_TEXT/UTF8
    Идентификатор кодека/Информация          : UTF-8 Plain Text
    Продолжительность                        : 1 ч. 32 м.
    Битрейт                                  : 27 бит/сек
    Count of elements                        : 575
    Размер потока                            : 18,5 Кбайт (0%)
    Заголовок                                : DANiSH / Forced
    Язык                                     : Danish
    Default                                  : Нет
    Forced                                   : Нет
    Меню
    00:00:00.000                             : en:00:00:00.000
    00:01:38.042                             : en:00:01:38.042
    00:07:02.958                             : en:00:07:02.958
    00:11:25.667                             : en:00:11:25.667
    00:18:15.958                             : en:00:18:15.958
    00:22:58.875                             : en:00:22:58.875
    00:28:15.375                             : en:00:28:15.375
    00:34:04.250                             : en:00:34:04.250
    00:39:08.458                             : en:00:39:08.458
    00:45:48.458                             : en:00:45:48.458
    00:51:09.250                             : en:00:51:09.250
    00:56:47.000                             : en:00:56:47.000
    01:03:13.917                             : en:01:03:13.917
    01:07:33.125                             : en:01:07:33.125
    01:13:37.667                             : en:01:13:37.667
    01:18:17.042                             : en:01:18:17.042
    01:20:26.542                             : en:01:20:26.542
    01:25:22.167                             : en:01:25:22.167
    01:31:34.083                             : en:01:31:34.083
    01:35:51.500                             : en:01:35:51.500

    Скриншоты

    Скачать .torrent

    Скачать торрент-файл бесплатно и на максимальной скорости!

    Как скачивать? · Что такое торрент? · Рейтинг и ограничения

    !ВНИМАНИЕ!
    Сайт не распространяет и не хранит электронные версии произведений, а занимается лишь лишь предоставлением доступа к создаваемому пользователями каталогу ссылок на торрент-файлы, которые содержат только списки хеш-сумм, убедительная просьба с жалобами обращаться напрямую к пользователю. Файлы для обмена на трекере предоставлены пользователями сайта, и администрация не несёт ответственности за их содержание. Просьба не заливать файлы, защищенные авторскими правами, а также файлы нелегального содержания!


    _________________
    [Профиль] [ЛС]
    Показать сообщения:    
    Ответить на тему

    Текущее время: Сегодня, в 14:33

    Часовой пояс: GMT + 2



    Вы не можете начинать темы
    Вы не можете отвечать на сообщения
    Вы не можете редактировать свои сообщения
    Вы не можете удалять свои сообщения
    Вы не можете голосовать в опросах
    Вы не можете прикреплять файлы к сообщениям
    Вы не можете скачивать файлы