BitTorrentTracker PerecTracker.org
BitTorrentTracker PerecTracker.org
    
Регистрация  ·  Вход
 
 · 
Забыли пароль?

  • Волк у двери / O Lobo atrás da Porta / O Lobo atras da Porta (Фернандо Коимбра / Fernando Coimbra) [2013, Бразилия, триллер, драма, BDRip 1080p] VO (PashaUp) + Sub Rus (creo140) + Original Por

    Ответить на тему
     
    Автор Сообщение

    Light

    Создавать темы 11-Июл-2016 18:57

           

    [Цитировать]

    Волк у двери / O Lobo atrás da Porta / O Lobo atras da Porta
    Страна: Бразилия
    Жанр: триллер, драма
    Год выпуска: 2013
    Продолжительность: 01:41:40
    Перевод 1: Одноголосый закадровый - PashaUp
    Перевод 2: Субтитры - creo140
    Cубтитры: русские
    Оригинальная аудиодорожка: португальский
    Режиссер: Фернандо Коимбра / Fernando Coimbra
    В ролях: Талита Караута, Жулиану Казарре, Мильем Корташ, Леандра Леал, Фабиула Наскименту, Изабель Риббас, Антонио Саборио, Тамара Таксман, Карин Телес
    Описание: Фильм основан на реальных событиях. Похищена шестилетняя девочка Кларинья. Родители девочки, Сильвия и Бернарду, и главная подозреваемая, дают противоречивые показания. Эта девушка — любовница Бернарду, с которой тот познакомился в поезде. Но по ходу действия выясняется, что и Сильвия отлично знает эту девушку, не имея при этом ни малейшего представления о ее связи с Бернарду. Для Сильвии, дружба с такой девушкой, настоящая отдушина. Способ выбраться из каждодневной рутины. А запылавший в ее душе огонь помог вновь разжечь страсть к мужу...

    Сэмпл: http://multi-up.com/1109349
    Тип релиза: BDRip 1080p
    Контейнер: MKV
    Видео: AVC, 10,6 Мбит/сек, 1920 x 816, 23.976 fps
    Аудио 1: Russian (Dolby AC3, 6 ch), 48 kHz, 448 kbps
    Аудио 2: Portuguese (Dolby AC3, 6 ch), 48 kHz, 640 kbps
    Формат субтитров: softsub (SRT)

    MediaInfo

    Matroska
    Версия формата : Version 2
    Размер файла : 8,25 Гбайт
    Продолжительность : 1 ч. 41 м.
    Общий поток : 11,6 Мбит/сек
    Дата кодирования : UTC 2016-07-10 08:37:12
    Программа кодирования : mkvmerge v7.5.0 ('Glass Culture') 32bit built on Jan 4 2015 16:37:25
    Библиотека кодирования : libebml v1.3.1 + libmatroska v1.4.2
    DURATION : 01:41:40.320000000
    NUMBER_OF_FRAMES : 190635
    NUMBER_OF_BYTES : 341617920
    _STATISTICS_WRITING_APP : mkvmerge v7.5.0 ('Glass Culture') 32bit built on Jan 4 2015 16:37:25
    _STATISTICS_WRITING_DATE_UTC : 2016-07-10 08:37:12
    _STATISTICS_TAGS : BPS DURATION NUMBER_OF_FRAMES NUMBER_OF_BYTES
    Видео
    Идентификатор : 1
    Формат : AVC
    Формат/Информация : Advanced Video Codec
    Профиль формата : High@L4.1
    Параметр CABAC формата : Да
    Параметр ReFrames формата : 4 кадра
    Идентификатор кодека : V_MPEG4/ISO/AVC
    Продолжительность : 1 ч. 41 м.
    Битрейт : 10,6 Мбит/сек
    Ширина : 1920 пикселей
    Высота : 816 пикселей
    Соотношение сторон : 2,35:1
    Режим частоты кадров : Постоянный
    Частота кадров : 23,976 кадра/сек
    Цветовое пространство : YUV
    Субдискретизация насыщенности : 4:2:0
    Битовая глубина : 8 бит
    Тип развёртки : Прогрессивная
    Бит/(Пиксели*Кадры) : 0.281
    Размер потока : 7,31 Гбайт (89%)
    Заголовок : TrueHD Encoders
    Библиотека кодирования : x264 core 142 r2431 ac76440
    Настройки программы : cabac=1 / ref=4 / deblock=1:-1:-1 / analyse=0x3:0x133 / me=umh / subme=8 / psy=1 / psy_rd=1.00:0.00 / mixed_ref=1 / me_range=24 / chroma_me=1 / trellis=2 / 8x8dct=1 / cqm=0 / deadzone=21,11 / fast_pskip=1 / chroma_qp_offset=-2 / threads=18 / lookahead_threads=4 / sliced_threads=0 / nr=0 / decimate=1 / interlaced=0 / bluray_compat=0 / constrained_intra=0 / bframes=4 / b_pyramid=2 / b_adapt=2 / b_bias=0 / direct=3 / weightb=1 / open_gop=0 / weightp=2 / keyint=230 / keyint_min=23 / scenecut=40 / intra_refresh=0 / rc_lookahead=60 / rc=2pass / mbtree=1 / bitrate=10557 / ratetol=1.0 / qcomp=0.60 / qpmin=0 / qpmax=69 / qpstep=4 / cplxblur=20.0 / qblur=0.5 / vbv_maxrate=35125 / vbv_bufsize=35125 / nal_hrd=none / filler=0 / ip_ratio=1.40 / aq=1:1.00
    Язык : Russian
    Default : Да
    Forced : Нет
    DURATION : 01:41:40.219000000
    NUMBER_OF_FRAMES : 146259
    NUMBER_OF_BYTES : 8027580638
    _STATISTICS_WRITING_APP : mkvmerge v7.5.0 ('Glass Culture') 32bit built on Jan 4 2015 16:37:25
    _STATISTICS_WRITING_DATE_UTC : 2016-07-10 08:37:12
    _STATISTICS_TAGS : BPS DURATION NUMBER_OF_FRAMES NUMBER_OF_BYTES
    Аудио #1
    Идентификатор : 2
    Формат : AC-3
    Формат/Информация : Audio Coding 3
    Расширение режима : CM (complete main)
    Параметр Endianness формата : Big
    Идентификатор кодека : A_AC3
    Продолжительность : 1 ч. 41 м.
    Вид битрейта : Постоянный
    Битрейт : 448 Кбит/сек
    Каналы : 6 каналов
    Расположение каналов : Front: L C R, Side: L R, LFE
    Частота : 48,0 КГц
    Битовая глубина : 16 бит
    Метод сжатия : С потерями
    Размер потока : 326 Мбайт (4%)
    Язык : Russian
    Default : Да
    Forced : Нет
    Аудио #2
    Идентификатор : 3
    Формат : AC-3
    Формат/Информация : Audio Coding 3
    Расширение режима : CM (complete main)
    Параметр Endianness формата : Big
    Идентификатор кодека : A_AC3
    Продолжительность : 1 ч. 41 м.
    Вид битрейта : Постоянный
    Битрейт : 640 Кбит/сек
    Каналы : 6 каналов
    Расположение каналов : Front: L C R, Side: L R, LFE
    Частота : 48,0 КГц
    Битовая глубина : 16 бит
    Метод сжатия : С потерями
    Размер потока : 465 Мбайт (6%)
    Заголовок : TrueHD Encoders
    Язык : Portuguese
    Default : Нет
    Forced : Нет
    Текст
    Идентификатор : 4
    Формат : UTF-8
    Идентификатор кодека : S_TEXT/UTF8
    Идентификатор кодека/Информация : UTF-8 Plain Text
    Язык : Russian
    Default : Нет
    Forced : Нет

    Скриншоты

    Скачать .torrent

    Скачать торрент-файл бесплатно и на максимальной скорости!

    Как скачивать? · Что такое торрент? · Рейтинг и ограничения

    !ВНИМАНИЕ!
    Сайт не распространяет и не хранит электронные версии произведений, а занимается лишь лишь предоставлением доступа к создаваемому пользователями каталогу ссылок на торрент-файлы, которые содержат только списки хеш-сумм, убедительная просьба с жалобами обращаться напрямую к пользователю. Файлы для обмена на трекере предоставлены пользователями сайта, и администрация не несёт ответственности за их содержание. Просьба не заливать файлы, защищенные авторскими правами, а также файлы нелегального содержания!


    _________________
    [Профиль] [ЛС]
    Показать сообщения:    
    Ответить на тему

    Текущее время: Сегодня, в 10:58

    Часовой пояс: GMT + 2



    Вы не можете начинать темы
    Вы не можете отвечать на сообщения
    Вы не можете редактировать свои сообщения
    Вы не можете удалять свои сообщения
    Вы не можете голосовать в опросах
    Вы не можете прикреплять файлы к сообщениям
    Вы не можете скачивать файлы