BitTorrentTracker PerecTracker.org
BitTorrentTracker PerecTracker.org
    
Регистрация  ·  Вход
 
 · 
Забыли пароль?

  • Жизнь Пи / Life of Pi (Энг Ли / Ang Lee ) [2012, США, Тайвань, Великобритания, Фэнтези, драма, приключения, BDRip, HD (720p)] DUB + Original + sub (rus, eng, ukr)

    Ответить на тему
     
    Автор Сообщение

    rechyn

    Создавать темы 11-Июл-2016 18:57

           

    [Цитировать]

    Жизнь Пи / Life of Pi
    «Поверь в невозможное»
    7.838 / 10 8.00 / 10
    -Год выпуска: 2012
    Страна: США, Тайвань, Великобритания
    Жанр: Фэнтези, драма, приключения
    Продолжительность: 02:06:59
    Перевод: Дублированный (Лицензия)
    Оригинальная аудиодорожка: Есть
    Cубтитры: Русские форсированные, Английские форсированные, Русские, Английские, Украинские
    Режиссёр: Энг Ли
    Сценарий: Дэвид Мэги, Янн Мартел
    Продюсер: Энг Ли, Джил Неттер, Дэвид Уомарк
    Оператор: Клаудио Миранда
    Композитор: Майкл Дэнна
    Художник: Дэвид Гропмэн, Аль Хоббс, Дэн Уэбстер
    Монтаж: Тим Скуайрес
    В ролях: Сурадж Шарма, Ирфан Кхан, Рейф Сполл, Табу, Адиль Хуссэйн, Жерар Депардье, Аюш Тандон, Гаутам Белур, Аяан Кхан, Мохд Аббас Халили
    Бюджет: $120 000 000
    Сборы в США: $124 987 023
    Сборы в мире: + $484 029 542 = $609 016 565
    Сборы в России: $30 228 172
    Мировая премьера: 28 сентября 2012
    Премьера (РФ): 1 января 2013, «Двадцатый Век Фокс СНГ»
    Релиз на DVD: 4 апреля 2013, «Двадцатый Век Фокс СНГ»
    Релиз на Blu-Ray: 4 апреля 2013, «Двадцатый Век Фокс СНГ»
    Описание: Это история сына владельца одного индийского зоопарка, мальчика по имени Пи. Он познаёт мир, учится отстаивать свои принципы, ищет собственную дорогу к Богу, живя по канонам трёх конфессий, влюбляется… Но волей судьбы его семья вынуждена эмигрировать. На полпути между Индией и Канадой корабль терпит крушение, и Пи остается в шлюпке вместе с бенгальским тигром, гиеной, зеброй и орангутангом. Вокруг безбрежная водная гладь, а впереди — неизвестность…-Качество исходника: BDRemux (HDClub)
    Качество: BDRip
    Тип: HD (720p)
    Контейнер: M4V
    Видео: H.264, 1280x690, 1.85:1, 3 500 Kbps, 23.976 fps
    Аудио 1: Русский/Дублированный (Лицензия), AAC / 2.0 / 158 Kbps / 48.0 KHz
    Аудио 2: Английский/Оригинальная дорожка , AAC / 2.0 / 166 Kbps / 48.0 KHz
    Аудио 3: Украинский/Дублированный (Лицензия), AAC / 2.0 / 158 Kbps / 48.0 KHz
    Аудио 4: Русский/Дублированный (Лицензия), AC-3 / 5.1 / 640 Kbps / 48.0 KHz
    Аудио 5: Английский/Оригинальная дорожка , AC-3 / 5.1 / 640 Kbps / 48.0 KHz
    Аудио 6: Украинский/Дублированный (Лицензия), AC-3 / 5.1 / 448 Kbps / 48.0 KHz
    Субтитры 1: Русские форсированные
    Субтитры 2: Английские форсированные
    Субтитры 3: Русские полные
    Субтитры 4: Английские полные
    Субтитры 5: Украинские полные
    -

    iTunes Meta Tags

    Sort Name: Life of Pi
    XID: Apple:vendor_id:2012-158786
    contentID: 586187595
    Copyright: © 2012 Twentieth Century Fox Film Corporation. All rights reserved.
    Screenwriters: Дэвид Мэги, Янн Мартел
    Producers: Энг Ли, Джил Неттер, Дэвид Уомарк
    Director: Энг Ли
    Cast: Сурадж Шарма, Ирфан Кхан, Рейф Сполл, Табу, Адиль Хуссэйн, Жерар Депардье, Аюш Тандон, Гаутам Белур, Аяан Кхан, Мохд Аббас Халили
    Studio: 20th Century Fox
    Rating: 3
    Long Description: Это история сына владельца одного индийского зоопарка, мальчика по имени Пи. Он познаёт мир, учится отстаивать свои принципы, ищет собственную дорогу к Богу, живя по канонам трёх конфессий, влюбляется... Но волей судьбы его семья вынуждена эмигрировать. На полпути между Индией и Канадой корабль терпит крушение, и Пи остается в шлюпке вместе с бенгальским тигром, гиеной, зеброй и орангутангом. Вокруг безбрежная водная гладь, а впереди - неизвестность...
    Description: Это история сына владельца одного индийского зоопарка, мальчика по имени Пи.
    Release Date: 2012-09-28T08:00:00Z
    Genre: Drama
    Artist: Ang Lee
    Name: Life of Pi

    MediaInfo

    General
    Complete name : /Users/imac/HandBrake/Life of Pi (720p HD).m4v
    Format : MPEG-4
    Codec ID : M4V
    File size : 5.07 GiB
    Duration : 2h 6mn
    Overall bit rate mode : Variable
    Overall bit rate : 5 720 Kbps
    Movie name : Life of Pi
    Performer : Ang Lee
    Director : Энг Ли
    Actor : Сурадж Шарма / Ирфан Кхан / Рейф Сполл / Табу / Адиль Хуссэйн / Жерар Депардье / Аюш Тандон / Гаутам Белур / Аяан Кхан / Мохд Аббас Халили
    Screenplay by : Дэвид Мэги / Янн Мартел
    Producer : Энг Ли / Джил Неттер / Дэвид Уомарк
    Production studio : 20th Century Fox
    Genre : Drama
    ContentType : Short Film
    Description : Это история сына владельца одного индийского зоопарка, мальчика по имени Пи.
    Recorded date : UTC 2012-09-28 08:00:00
    Encoded date : UTC 2016-07-11 10:03:43
    Tagged date : UTC 2016-07-11 10:05:49
    Copyright : © 2012 Twentieth Century Fox Film Corporation. All rights reserved.
    Cover : Yes
    Rating : None
    Title/Sort : Life of Pi
    LongDescription : Это история сына владельца одного индийского зоопарка, мальчика по имени Пи. Он познаёт мир, учится отстаивать свои принципы, ищет собственную дорогу к Богу, живя по канонам трёх конфессий, влюбляется... Но волей судьбы его семья вынуждена эмигрировать. На полпути между Индией и Канадой корабль терпит крушение, и Пи остается в шлюпке вместе с бенгальским тигром, гиеной, зеброй и орангутангом. Вокруг безбрежная водная гладь, а впереди - неизвестность...
    HDVideo : Yes
    AppleStoreCatalogID : 586187595
    Vendor : Apple:vendor_id:2012-158786
    ContentRating : mpaa|PG|200|
    Video #1
    ID : 1
    Format : AVC
    Format/Info : Advanced Video Codec
    Format profile : High@L3.1
    Format settings, CABAC : No
    Format settings, ReFrames : 3 frames
    Codec ID : avc1
    Codec ID/Info : Advanced Video Coding
    Duration : 2h 6mn
    Source duration : 2h 6mn
    Bit rate : 3 500 Kbps
    Width : 1 280 pixels
    Height : 690 pixels
    Display aspect ratio : 1.85:1
    Frame rate mode : Variable
    Frame rate : 23.976 fps
    Minimum frame rate : 23.810 fps
    Maximum frame rate : 24.272 fps
    Color space : YUV
    Chroma subsampling : 4:2:0
    Bit depth : 8 bits
    Scan type : Progressive
    Bits/(Pixel*Frame) : 0.165
    Stream size : 3.10 GiB (61%)
    Source stream size : 3.10 GiB (61%)
    Title : Main Program
    Writing library : x264 core 142 r2479 dd79a61
    Encoding settings : cabac=0 / ref=3 / deblock=1:-3:-3 / analyse=0x3:0x113 / me=umh / subme=9 / psy=1 / psy_rd=1.00:0.15 / mixed_ref=1 / me_range=32 / chroma_me=1 / trellis=0 / 8x8dct=1 / cqm=0 / deadzone=21,11 / fast_pskip=0 / chroma_qp_offset=-2 / threads=36 / lookahead_threads=3 / sliced_threads=0 / nr=0 / decimate=0 / interlaced=0 / bluray_compat=0 / constrained_intra=0 / bframes=3 / b_pyramid=0 / b_adapt=2 / b_bias=0 / direct=1 / weightb=0 / open_gop=0 / weightp=0 / keyint=240 / keyint_min=24 / scenecut=40 / intra_refresh=0 / rc_lookahead=40 / rc=2pass / mbtree=1 / bitrate=3500 / ratetol=1.0 / qcomp=0.65 / qpmin=0 / qpmax=69 / qpstep=4 / cplxblur=20.0 / qblur=0.5 / vbv_maxrate=9500 / vbv_bufsize=9500 / nal_hrd=none / filler=0 / ip_ratio=1.40 / aq=1:1.10
    Language : English
    Encoded date : UTC 2016-07-11 10:03:43
    Tagged date : UTC 2016-07-11 10:03:50
    Color range : Limited
    Color primaries : BT.709
    Transfer characteristics : BT.709
    Matrix coefficients : BT.709
    Video #2
    ID : 14
    Format : JPEG
    Codec ID : jpeg
    Duration : 2h 6mn
    Bit rate mode : Variable
    Bit rate : 1 356 bps
    Width : 640 pixels
    Height : 345 pixels
    Display aspect ratio : 1.85:1
    Frame rate mode : Variable
    Frame rate : 0.004 fps
    Minimum frame rate : 0.002 fps
    Maximum frame rate : 0.010 fps
    Color space : YUV
    Chroma subsampling : 4:2:0
    Bit depth : 8 bits
    Compression mode : Lossy
    Bits/(Pixel*Frame) : 1.535
    Stream size : 1.13 MiB (0%)
    Title : Chapter Images
    Language : English
    Encoded date : UTC 2016-07-11 10:04:44
    Tagged date : UTC 2016-07-11 10:04:45
    Audio #1
    ID : 2
    Format : AAC
    Format/Info : Advanced Audio Codec
    Format profile : LC
    Codec ID : 40
    Duration : 2h 6mn
    Bit rate mode : Variable
    Bit rate : 158 Kbps
    Maximum bit rate : 257 Kbps
    Channel(s) : 2 channels
    Channel positions : Front: L R
    Sampling rate : 48.0 KHz
    Compression mode : Lossy
    Stream size : 143 MiB (3%)
    Title : Russian Stereo
    Language : Russian
    Encoded date : UTC 2016-07-11 10:03:43
    Tagged date : UTC 2016-07-11 10:04:38
    Audio #2
    ID : 3
    Format : AAC
    Format/Info : Advanced Audio Codec
    Format profile : LC
    Codec ID : 40
    Duration : 2h 6mn
    Bit rate mode : Variable
    Bit rate : 166 Kbps
    Maximum bit rate : 234 Kbps
    Channel(s) : 2 channels
    Channel positions : Front: L R
    Sampling rate : 48.0 KHz
    Compression mode : Lossy
    Stream size : 151 MiB (3%)
    Title : English Stereo
    Language : English
    Encoded date : UTC 2016-07-11 10:03:43
    Tagged date : UTC 2016-07-11 10:04:38
    Audio #3
    ID : 4
    Format : AAC
    Format/Info : Advanced Audio Codec
    Format profile : LC
    Codec ID : 40
    Duration : 2h 6mn
    Bit rate mode : Variable
    Bit rate : 158 Kbps
    Maximum bit rate : 242 Kbps
    Channel(s) : 2 channels
    Channel positions : Front: L R
    Sampling rate : 48.0 KHz
    Compression mode : Lossy
    Stream size : 143 MiB (3%)
    Title : Ukrainian Stereo
    Language : Ukrainian
    Encoded date : UTC 2016-07-11 10:03:43
    Tagged date : UTC 2016-07-11 10:04:38
    Audio #4
    ID : 5
    Format : AC-3
    Format/Info : Audio Coding 3
    Mode extension : CM (complete main)
    Format settings, Endianness : Big
    Codec ID : ac-3
    Duration : 2h 6mn
    Bit rate mode : Constant
    Bit rate : 640 Kbps
    Channel(s) : 6 channels
    Channel positions : Front: L C R, Side: L R, LFE
    Sampling rate : 48.0 KHz
    Bit depth : 16 bits
    Compression mode : Lossy
    Stream size : 581 MiB (11%)
    Title : Russian DD 5.1
    Language : Russian
    Encoded date : UTC 2016-07-11 10:03:43
    Tagged date : UTC 2016-07-11 10:04:38
    Audio #5
    ID : 6
    Format : AC-3
    Format/Info : Audio Coding 3
    Mode extension : CM (complete main)
    Format settings, Endianness : Big
    Codec ID : ac-3
    Duration : 2h 6mn
    Bit rate mode : Constant
    Bit rate : 640 Kbps
    Channel(s) : 6 channels
    Channel positions : Front: L C R, Side: L R, LFE
    Sampling rate : 48.0 KHz
    Bit depth : 16 bits
    Compression mode : Lossy
    Stream size : 581 MiB (11%)
    Title : English DD 5.1
    Language : English
    Encoded date : UTC 2016-07-11 10:03:43
    Tagged date : UTC 2016-07-11 10:04:38
    Audio #6
    ID : 7
    Format : AC-3
    Format/Info : Audio Coding 3
    Mode extension : CM (complete main)
    Format settings, Endianness : Big
    Codec ID : ac-3
    Duration : 2h 6mn
    Bit rate mode : Constant
    Bit rate : 448 Kbps
    Channel(s) : 6 channels
    Channel positions : Front: L C R, Side: L R, LFE
    Sampling rate : 48.0 KHz
    Bit depth : 16 bits
    Compression mode : Lossy
    Stream size : 407 MiB (8%)
    Title : Ukrainian DD 5.1
    Language : Ukrainian
    Encoded date : UTC 2016-07-11 10:03:43
    Tagged date : UTC 2016-07-11 10:04:38
    Text #1
    ID : 8
    Format : Timed Text
    Muxing mode : sbtl
    Codec ID : tx3g
    Duration : 1h 49mn
    Bit rate mode : Variable
    Bit rate : 2 bps
    Stream size : 1.68 KiB (0%)
    Title : Russian forced
    Language : Russian
    Encoded date : UTC 2016-07-11 10:03:43
    Tagged date : UTC 2016-07-11 10:04:31
    Text #2
    ID : 9
    Format : Timed Text
    Muxing mode : sbtl
    Codec ID : tx3g
    Duration : 1h 49mn
    Bit rate mode : Variable
    Bit rate : 1 bps
    Stream size : 1.05 KiB (0%)
    Title : English forced
    Language : English
    Encoded date : UTC 2016-07-11 10:03:43
    Tagged date : UTC 2016-07-11 10:04:31
    Text #3
    ID : 10
    Format : Timed Text
    Muxing mode : sbtl
    Codec ID : tx3g
    Duration : 2h 6mn
    Bit rate mode : Variable
    Bit rate : 62 bps
    Stream size : 57.8 KiB (0%)
    Title : Russian full
    Language : Russian
    Encoded date : UTC 2016-07-11 10:03:43
    Tagged date : UTC 2016-07-11 10:04:34
    Text #4
    ID : 11
    Format : Timed Text
    Muxing mode : sbtl
    Codec ID : tx3g
    Duration : 1h 58mn
    Bit rate mode : Variable
    Bit rate : 54 bps
    Stream size : 46.8 KiB (0%)
    Title : English full
    Language : English
    Encoded date : UTC 2016-07-11 10:03:43
    Tagged date : UTC 2016-07-11 10:04:34
    Text #5
    ID : 12
    Format : Timed Text
    Muxing mode : sbtl
    Codec ID : tx3g
    Duration : 2h 6mn
    Bit rate mode : Variable
    Bit rate : 59 bps
    Stream size : 54.8 KiB (0%)
    Title : Ukrainian full
    Language : Ukrainian
    Encoded date : UTC 2016-07-11 10:03:43
    Tagged date : UTC 2016-07-11 10:04:34
    Menu #1
    00:00:00.000 : Chapter 1
    00:03:58.905 : Chapter 2
    00:11:13.256 : Chapter 3
    00:15:25.007 : Chapter 4
    00:21:29.705 : Chapter 5
    00:25:44.626 : Chapter 6
    00:29:46.910 : Chapter 7
    00:31:31.139 : Chapter 8
    00:35:34.382 : Chapter 9
    00:45:24.430 : Chapter 10
    00:50:21.977 : Chapter 11
    00:54:13.459 : Chapter 12
    00:57:18.435 : Chapter 13
    01:00:07.562 : Chapter 14
    01:04:12.140 : Chapter 15
    01:09:32.168 : Chapter 16
    01:11:48.137 : Chapter 17
    01:13:34.368 : Chapter 18
    01:16:47.728 : Chapter 19
    01:21:31.261 : Chapter 20
    01:23:10.110 : Chapter 21
    01:26:30.977 : Chapter 22
    01:31:21.559 : Chapter 23
    01:34:13.940 : Chapter 24
    01:43:42.758 : Chapter 25
    01:47:38.744 : Chapter 26
    01:55:20.163 : Chapter 27
    01:59:16.441 : Chapter 28
    Menu #2
    ID : 13
    Codec ID : text
    Duration : 2h 6mn
    Language : English
    Encoded date : UTC 2016-07-11 10:04:38
    Tagged date : UTC 2016-07-11 10:04:38
    00:00:00.000 : Chapter 1
    00:03:58.905 : Chapter 2
    00:11:13.256 : Chapter 3
    00:15:25.007 : Chapter 4
    00:21:29.705 : Chapter 5
    00:25:44.626 : Chapter 6
    00:29:46.910 : Chapter 7
    00:31:31.139 : Chapter 8
    00:35:34.382 : Chapter 9
    00:45:24.430 : Chapter 10
    00:50:21.977 : Chapter 11
    00:54:13.459 : Chapter 12
    00:57:18.435 : Chapter 13
    01:00:07.562 : Chapter 14
    01:04:12.140 : Chapter 15
    01:09:32.168 : Chapter 16
    01:11:48.137 : Chapter 17
    01:13:34.368 : Chapter 18
    01:16:47.728 : Chapter 19
    01:21:31.261 : Chapter 20
    01:23:10.110 : Chapter 21
    01:26:30.977 : Chapter 22
    01:31:21.559 : Chapter 23
    01:34:13.940 : Chapter 24
    01:43:42.758 : Chapter 25
    01:47:38.744 : Chapter 26
    01:55:20.163 : Chapter 27
    01:59:16.441 : Chapter 28
    Bit rate mode : VBR

    x264 лог

    x264 [info]: frame I:1156  Avg QP:17.45  size: 97459
    x264 [info]: frame P:72829 Avg QP:20.45  size: 30252
    x264 [info]: frame B:108703 Avg QP:22.14  size:  9320
    x264 [info]: consecutive B-frames:  4.8% 35.9% 35.5% 23.9%
    x264 [info]: mb I  I16..4: 13.2% 53.5% 33.3%
    x264 [info]: mb P  I16..4:  3.6%  9.1%  4.0%  P16..4: 48.2% 17.2%  7.2%  0.0%  0.0%    skip:10.7%
    x264 [info]: mb B  I16..4:  0.4%  1.6%  0.8%  B16..8: 36.6%  7.4%  1.2%  direct: 4.0%  skip:48.0%  L0:38.5% L1:52.8% BI: 8.6%
    x264 [info]: 8x8 transform intra:54.9% inter:52.3%
    x264 [info]: coded y,uvDC,uvAC intra: 71.6% 53.4% 20.4% inter: 19.2% 17.2% 5.9%
    x264 [info]: i16 v,h,dc,p: 29% 22%  6% 43%
    x264 [info]: i8 v,h,dc,ddl,ddr,vr,hd,vl,hu:  7% 13%  3% 10% 15% 12% 18%  9% 13%
    x264 [info]: i4 v,h,dc,ddl,ddr,vr,hd,vl,hu:  9% 16%  3%  9% 15% 11% 18%  7% 12%
    x264 [info]: i8c dc,h,v,p: 53% 23% 16%  8%
    x264 [info]: ref P L0: 72.6% 15.9% 11.5%
    x264 [info]: ref B L0: 80.6% 19.4%
    x264 [info]: kb/s:3495.15

    Скриншоты

    -

    Релиз подготовлен для просмотра на Apple TV, iPad, iPhone, iPod Touch.
    Для просмотра данного релиза на компьютере с ОС Windows рекомендуется использовать VLC media player
    Скачать .torrent

    Скачать торрент-файл бесплатно и на максимальной скорости!

    Как скачивать? · Что такое торрент? · Рейтинг и ограничения

    !ВНИМАНИЕ!
    Сайт не распространяет и не хранит электронные версии произведений, а занимается лишь лишь предоставлением доступа к создаваемому пользователями каталогу ссылок на торрент-файлы, которые содержат только списки хеш-сумм, убедительная просьба с жалобами обращаться напрямую к пользователю. Файлы для обмена на трекере предоставлены пользователями сайта, и администрация не несёт ответственности за их содержание. Просьба не заливать файлы, защищенные авторскими правами, а также файлы нелегального содержания!


    _________________
    [Профиль] [ЛС]
    Показать сообщения:    
    Ответить на тему

    Текущее время: Сегодня, в 01:12

    Часовой пояс: GMT + 2



    Вы не можете начинать темы
    Вы не можете отвечать на сообщения
    Вы не можете редактировать свои сообщения
    Вы не можете удалять свои сообщения
    Вы не можете голосовать в опросах
    Вы не можете прикреплять файлы к сообщениям
    Вы не можете скачивать файлы