BitTorrentTracker PerecTracker.org
BitTorrentTracker PerecTracker.org
    
Регистрация  ·  Вход
 
 · 
Забыли пароль?

  • Майна / Maina (Мишель Полетт / Michel Poulette) [2013, Канада, Приключения, DVDRip] VO (PashaUp)

    Ответить на тему
     
    Автор Сообщение

    Light

    Создавать темы 11-Июл-2016 18:57

           

    [Цитировать]

    Майна / Maina"The oldest and strongest emotion
    of mankind is fear,
    and the oldest and strongest kind
    of fear is fear of the unknown.
    H.P.Lovecraft"
    -Страна: Канада
    Жанр: Приключения
    Год выпуска: 2013
    Продолжительность: 1:38:04-Перевод: Одноголосый закадровый
    Cубтитры: нет
    Режиссер: Мишель Полетт / Michel Poulette-В ролях: Reneltta Arluk, Танту Кардинал, Грэм Грин, Эрик Швейг, Ipellie Ootoova, Pakak Innuksuk, Роузэнн Супернаульт, Люси Тулугарджук, Натар Унгалаак, Uapshkuss Thernish, Nuvvija Tulugarjuk.-Описание: Юная девушка Майна родилась и выросла в племени северо — американских индейцев, которые испокон веков живут на лоне природы, верят в силы духов и почитают старые традиции, и обычаи. Родила девочку Такаэра, но вскормила и вырастила девочку другая женщина, ставшая спутницей отца — вождя племени. Такаэра не смогла простить ему измену. Она покинула племя и стала вести уединенную жизнь, оставаясь при этом шаманом племени.
    После смерти отца, отравленного членом враждующего племени Саиту, Майна вынуждена противостоять одержимому ею Саиту, а также отправиться в далекое путешествие, чтобы разыскать похищенного одиннадцатилетнего мальчишку из племени, по имени Нипки. На пути бесстрашную девушку ждет множество приключений, опасных ситуаций и знакомств с новыми интересными людьми.-Доп. информация:
    |
    -Сэмпл: http://sendfile.su/1248375-Качество видео: DVDRip
    Формат видео: AVI-Видео: XviD MPEG-4, 720x384, 1,85:1, 25000fps, 1800 kbps.
    Аудио: AC3 2.0, Audio Coding 3, 48,0 КГц, 192 kbps, Front: L R-

    MediaInfo

    Общее
    Полное имя : G:\Maina.2013.avi
    Формат : AVI
    Формат/Информация : Audio Video Interleave
    Размер файла : 1,37 Гбайт
    Продолжительность : 1 ч. 38 м.
    Общий поток : 2003 Кбит/сек
    Программа кодирования : VirtualDubMod 1.5.10.2 (build 2540/release)
    Библиотека кодирования : VirtualDubMod build 2540/release
    Видео
    Идентификатор : 0
    Формат : MPEG-4 Visual
    Профиль формата : Advanced Simple@L5
    Параметр BVOP формата : 1
    Параметр QPel формата : Нет
    Параметр GMC формата : Без точки перехода
    Параметр матрицы формата : Выборочная
    Идентификатор кодека : XVID
    Идентификатор кодека/Подсказка : XviD
    Продолжительность : 1 ч. 38 м.
    Битрейт : 1801 Кбит/сек
    Ширина : 720 пикселей
    Высота : 384 пикселя
    Соотношение сторон : 1,85:1
    Частота кадров : 25,000 кадров/сек
    Цветовое пространство : YUV
    Субдискретизация насыщенности : 4:2:0
    Битовая глубина : 8 бит
    Тип развёртки : Прогрессивная
    Метод сжатия : С потерями
    Бит/(Пиксели*Кадры) : 0.261
    Размер потока : 1,23 Гбайт (90%)
    Библиотека кодирования : XviD 1.2.1 (UTC 2008-12-04)
    Аудио
    Идентификатор : 1
    Формат : AC-3
    Формат/Информация : Audio Coding 3
    Расширение режима : CM (complete main)
    Параметр Endianness формата : Big
    Идентификатор кодека : 2000
    Продолжительность : 1 ч. 38 м.
    Вид битрейта : Постоянный
    Битрейт : 192 Кбит/сек
    Каналы : 2 канала
    Расположение каналов : Front: L R
    Частота : 48,0 КГц
    Частота кадров : 31,250 кадров/сек (1536 spf)
    Метод сжатия : С потерями
    Размер потока : 135 Мбайт (10%)
    Выравнивание : Разделение по промежуткам
    Продолжительность промежутка : 40 мс. (1,00 видеокадр)
    Время предзагрузки промежутка : 500 мс.
    Язык : Inuktitut

    Скриншот c названием фильма

    Скриншоты














    Скачать .torrent

    Скачать торрент-файл бесплатно и на максимальной скорости!

    Как скачивать? · Что такое торрент? · Рейтинг и ограничения

    !ВНИМАНИЕ!
    Сайт не распространяет и не хранит электронные версии произведений, а занимается лишь лишь предоставлением доступа к создаваемому пользователями каталогу ссылок на торрент-файлы, которые содержат только списки хеш-сумм, убедительная просьба с жалобами обращаться напрямую к пользователю. Файлы для обмена на трекере предоставлены пользователями сайта, и администрация не несёт ответственности за их содержание. Просьба не заливать файлы, защищенные авторскими правами, а также файлы нелегального содержания!


    _________________
    [Профиль] [ЛС]
    Показать сообщения:    
    Ответить на тему

    Текущее время: Сегодня, в 19:52

    Часовой пояс: GMT + 2



    Вы не можете начинать темы
    Вы не можете отвечать на сообщения
    Вы не можете редактировать свои сообщения
    Вы не можете удалять свои сообщения
    Вы не можете голосовать в опросах
    Вы не можете прикреплять файлы к сообщениям
    Вы не можете скачивать файлы