BitTorrentTracker PerecTracker.org
BitTorrentTracker PerecTracker.org
    
Регистрация  ·  Вход
 
 · 
Забыли пароль?

  • (Industrial / Experimental) [CD] Laibach - Spectre (Limited Edition) - 2014, FLAC (tracks+.cue), lossless

    Ответить на тему
     
    Автор Сообщение

    Columb

    Создавать темы 16-Мар-2014 10:29

           

    [Цитировать]

    Laibach / Spectre (Limited Edition)
    Жанр: Industrial / Experimental
    Носитель: CD
    Страна-производитель диска: Europe
    Год издания: 2014
    Издатель (лейбл): Mute
    Номер по каталогу: CDSTUMM358
    Страна: Slovenia
    Аудиокодек: FLAC (*.flac)
    Тип рипа: tracks+.cue
    Битрейт аудио: lossless
    Продолжительность: 00:56:52
    Источник (релизер): найдено в интернете
    Наличие сканов в содержимом раздачи: нет
    Треклист:
    01. The Whistleblowers 3:31
    02. No History 3:16
    03. Eat Liver! 3:10
    04. Americana 4:28
    05. We Are Millions And Millions Are One 4:22
    06. Eurovision 4:38
    07. Walk With Me 3:55
    08. Bossanova 3:10
    09. Resistance Is Futile 6:54
    10. Koran 5:22
    11. The Parade 4:04
    12. Love On The Beat 3:20
    13. Just Say No! 2:30
    14. See That My Grave Is Kept Clean 4:05

    Лог создания рипа

    Exact Audio Copy V1.0 beta 3 from 29. August 2011
    EAC extraction logfile from 14. March 2014, 15:21
    Laibach / Spectre
    Used drive : Optiarc DVD RW AD-7260S Adapter: 2 ID: 0
    Read mode : SecureUtilize accurate stream : YesDefeat audio cache : YesMake use of C2 pointers : No
    Read offset correction : 48Overread into Lead-In and Lead-Out : NoFill up missing offset samples with silence : YesDelete leading and trailing silent blocks : NoNull samples used in CRC calculations : YesUsed interface : Native Win32 interface for Win NT & 2000Gap handling : Appended to previous track
    Used output format : User Defined EncoderSelected bitrate : 1024 kBit/sQuality : HighAdd ID3 tag : NoCommand line compressor : C:\Program Files (x86)\Exact Audio Copy\Flac\flac.exeAdditional command line options : -8 -V -T "ARTIST=%artist%" -T "TITLE=%title%" -T "ALBUM=%albumtitle%" -T "DATE=%year%" -T "TRACKNUMBER=%tracknr%" -T "GENRE=%genre%" -T "PERFORMER=%albuminterpret%" -T "COMPOSER=%composer%" %haslyrics%--tag-from-file=LYRICS="%lyricsfile%"%haslyrics% -T "ALBUMARTIST=%albumartist%" -T "DISCNUMBER=%cdnumber%" -T "TOTALDISCS=%totalcds%" -T "TOTALTRACKS=%numtracks%" -T "COMMENT=%comment%" %source% -o %dest%
    TOC of the extracted CD
    Track | Start | Length | Start sector | End sector --------------------------------------------------------- 1 | 0:00.00 | 3:31.06 | 0 | 15830 2 | 3:31.06 | 3:16.60 | 15831 | 30590 3 | 6:47.66 | 3:10.37 | 30591 | 44877 4 | 9:58.28 | 4:28.42 | 44878 | 65019 5 | 14:26.70 | 4:22.38 | 65020 | 84707 6 | 18:49.33 | 4:38.29 | 84708 | 105586 7 | 23:27.62 | 3:55.26 | 105587 | 123237 8 | 27:23.13 | 3:10.36 | 123238 | 137523 9 | 30:33.49 | 6:54.41 | 137524 | 168614 10 | 37:28.15 | 5:22.26 | 168615 | 192790 11 | 42:50.41 | 4:04.72 | 192791 | 211162 12 | 46:55.38 | 3:20.68 | 211163 | 226230 13 | 50:16.31 | 2:30.63 | 226231 | 237543 14 | 52:47.19 | 4:05.24 | 237544 | 255942
    Track 1
    Filename F:\Muzika\upload what\Laibach - Spectre (2014) FLAC\01 The Whistleblowers.wav
    Pre-gap length 0:00:02.00
    Peak level 95.4 % Extraction speed 2.2 X Track quality 100.0 % Test CRC BACE0D1C Copy CRC BACE0D1C Accurately ripped (confidence 1) [795022B7] (AR v2) Copy OK
    Track 2
    Filename F:\Muzika\upload what\Laibach - Spectre (2014) FLAC\02 No History.wav
    Pre-gap length 0:00:00.84
    Peak level 95.1 % Extraction speed 2.4 X Track quality 100.0 % Test CRC 1F70CA84 Copy CRC 1F70CA84 Accurately ripped (confidence 1) [60FB2C25] (AR v2) Copy OK
    Track 3
    Filename F:\Muzika\upload what\Laibach - Spectre (2014) FLAC\03 Eat Liver!.wav
    Pre-gap length 0:00:02.66
    Peak level 95.4 % Extraction speed 2.6 X Track quality 100.0 % Test CRC 30A8C2DB Copy CRC 30A8C2DB Accurately ripped (confidence 1) [6ADF237D] (AR v2) Copy OK
    Track 4
    Filename F:\Muzika\upload what\Laibach - Spectre (2014) FLAC\04 Americana.wav
    Pre-gap length 0:00:01.18
    Peak level 95.5 % Extraction speed 2.6 X Track quality 99.9 % Test CRC 0CCC92CE Copy CRC 0CCC92CE Accurately ripped (confidence 1) [DFC1ABA2] (AR v2) Copy OK
    Track 5
    Filename F:\Muzika\upload what\Laibach - Spectre (2014) FLAC\05 We Are Millions and Millions Are One.wav
    Pre-gap length 0:00:01.98
    Peak level 93.8 % Extraction speed 3.1 X Track quality 100.0 % Test CRC 85450B25 Copy CRC 85450B25 Accurately ripped (confidence 1) [0206B937] (AR v2) Copy OK
    Track 6
    Filename F:\Muzika\upload what\Laibach - Spectre (2014) FLAC\06 Eurovision.wav
    Pre-gap length 0:00:02.04
    Peak level 95.4 % Extraction speed 3.4 X Track quality 100.0 % Test CRC AF6630EC Copy CRC AF6630EC Accurately ripped (confidence 1) [5DE88D80] (AR v2) Copy OK
    Track 7
    Filename F:\Muzika\upload what\Laibach - Spectre (2014) FLAC\07 Walk With Me.wav
    Pre-gap length 0:00:03.26
    Peak level 95.4 % Extraction speed 3.1 X Track quality 99.9 % Test CRC 011D76CB Copy CRC 011D76CB Accurately ripped (confidence 1) [A65CF01D] (AR v2) Copy OK
    Track 8
    Filename F:\Muzika\upload what\Laibach - Spectre (2014) FLAC\08 Bossanova.wav
    Pre-gap length 0:00:03.04
    Peak level 95.4 % Extraction speed 3.5 X Track quality 100.0 % Test CRC D333E25E Copy CRC D333E25E Accurately ripped (confidence 1) [E86F36C8] (AR v2) Copy OK
    Track 9
    Filename F:\Muzika\upload what\Laibach - Spectre (2014) FLAC\09 Resistance Is Futile.wav
    Pre-gap length 0:00:02.46
    Peak level 95.4 % Extraction speed 4.1 X Track quality 100.0 % Test CRC EE7AF7B9 Copy CRC EE7AF7B9 Accurately ripped (confidence 1) [280A7D9D] (AR v2) Copy OK
    Track 10
    Filename F:\Muzika\upload what\Laibach - Spectre (2014) FLAC\10 Koran.wav
    Pre-gap length 0:00:02.33
    Peak level 94.3 % Extraction speed 3.9 X Track quality 99.9 % Test CRC BAF37EC6 Copy CRC BAF37EC6 Accurately ripped (confidence 1) [FC14A4D6] (AR v2) Copy OK
    Track 11
    Filename F:\Muzika\upload what\Laibach - Spectre (2014) FLAC\11 The Parade.wav
    Pre-gap length 0:00:07.33
    Peak level 95.4 % Extraction speed 4.2 X Track quality 100.0 % Test CRC 37A70E1B Copy CRC 37A70E1B Accurately ripped (confidence 1) [E8CFDD51] (AR v2) Copy OK
    Track 12
    Filename F:\Muzika\upload what\Laibach - Spectre (2014) FLAC\12 Love on the Beat.wav
    Pre-gap length 0:00:00.22
    Peak level 95.4 % Extraction speed 4.3 X Track quality 100.0 % Test CRC 249D5535 Copy CRC 249D5535 Accurately ripped (confidence 1) [11D90B9F] (AR v2) Copy OK
    Track 13
    Filename F:\Muzika\upload what\Laibach - Spectre (2014) FLAC\13 Just Say No!.wav
    Pre-gap length 0:00:01.94
    Peak level 95.4 % Extraction speed 4.2 X Track quality 100.0 % Test CRC 64526174 Copy CRC 64526174 Accurately ripped (confidence 1) [DD5A24DD] (AR v2) Copy OK
    Track 14
    Filename F:\Muzika\upload what\Laibach - Spectre (2014) FLAC\14 See That My Grave Is Kept Clean.wav
    Peak level 97.6 % Extraction speed 4.6 X Track quality 100.0 % Test CRC AAC656F5 Copy CRC AAC656F5 Accurately ripped (confidence 1) [B566DD66] (AR v2) Copy OK
    All tracks accurately ripped
    No errors occurred
    End of status report
    ---- CUETools DB Plugin V2.1.4
    [CTDB TOCID: k0wQXxjzsJTgz8PJRIAuxb398HQ-] foundSubmit result: k0wQXxjzsJTgz8PJRIAuxb398HQ- has been confirmedTrack | CTDB Status 1 | (13/13) Accurately ripped 2 | (13/13) Accurately ripped 3 | (13/13) Accurately ripped 4 | (13/13) Accurately ripped 5 | (13/13) Accurately ripped 6 | (13/13) Accurately ripped 7 | (13/13) Accurately ripped 8 | (13/13) Accurately ripped 9 | (13/13) Accurately ripped 10 | (13/13) Accurately ripped 11 | (13/13) Accurately ripped 12 | (13/13) Accurately ripped 13 | (13/13) Accurately ripped 14 | (12/13) Accurately ripped
    ==== Log checksum BACBE72217DA97C3906E0BBB9B7D9CE27664EB5EE6E63EB2A228EE9732101E2B ====

    Содержание индексной карты (.CUE)

    REM DATE 2014PERFORMER "Laibach"TITLE "Spectre"FILE "01 - The Whistleblowers.flac" WAVE TRACK 01 AUDIO TITLE "The Whistleblowers" PERFORMER "Laibach" INDEX 01 00:00:00FILE "02 - No History.flac" WAVE TRACK 02 AUDIO TITLE "No History" PERFORMER "Laibach" INDEX 01 00:00:00FILE "03 - Eat Liver!.flac" WAVE TRACK 03 AUDIO TITLE "Eat Liver!" PERFORMER "Laibach" INDEX 01 00:00:00FILE "04 - Americana.flac" WAVE TRACK 04 AUDIO TITLE "Americana" PERFORMER "Laibach" INDEX 01 00:00:00FILE "05 - We Are Millions and Millions Are One.flac" WAVE TRACK 05 AUDIO TITLE "We Are Millions and Millions Are One" PERFORMER "Laibach" INDEX 01 00:00:00FILE "06 - Eurovision.flac" WAVE TRACK 06 AUDIO TITLE "Eurovision" PERFORMER "Laibach" INDEX 01 00:00:00FILE "07 - Walk With Me.flac" WAVE TRACK 07 AUDIO TITLE "Walk With Me" PERFORMER "Laibach" INDEX 01 00:00:00FILE "08 - Bossanova.flac" WAVE TRACK 08 AUDIO TITLE "Bossanova" PERFORMER "Laibach" INDEX 01 00:00:00FILE "09 - Resistance Is Futile.flac" WAVE TRACK 09 AUDIO TITLE "Resistance Is Futile" PERFORMER "Laibach" INDEX 01 00:00:00FILE "10 - Koran.flac" WAVE TRACK 10 AUDIO TITLE "Koran" PERFORMER "Laibach" INDEX 01 00:00:00FILE "11 - The Parade.flac" WAVE TRACK 11 AUDIO TITLE "The Parade" PERFORMER "Laibach" INDEX 01 00:00:00FILE "12 - Love on the Beat.flac" WAVE TRACK 12 AUDIO TITLE "Love on the Beat" PERFORMER "Laibach" INDEX 01 00:00:00FILE "13 - Just Say No!.flac" WAVE TRACK 13 AUDIO TITLE "Just Say No!" PERFORMER "Laibach" INDEX 01 00:00:00FILE "14 - See That My Grave Is Kept Clean.flac" WAVE TRACK 14 AUDIO TITLE "See That My Grave Is Kept Clean" PERFORMER "Laibach" INDEX 01 00:00:00

    Скриншот спектра частот

    Скачать .torrent

    Скачать торрент-файл бесплатно и на максимальной скорости!

    Как скачивать? · Что такое торрент? · Рейтинг и ограничения

    !ВНИМАНИЕ!
    Сайт не распространяет и не хранит электронные версии произведений, а занимается лишь лишь предоставлением доступа к создаваемому пользователями каталогу ссылок на торрент-файлы, которые содержат только списки хеш-сумм, убедительная просьба с жалобами обращаться напрямую к пользователю. Файлы для обмена на трекере предоставлены пользователями сайта, и администрация не несёт ответственности за их содержание. Просьба не заливать файлы, защищенные авторскими правами, а также файлы нелегального содержания!

    [Профиль] [ЛС]
    Показать сообщения:    
    Ответить на тему

    Текущее время: Сегодня, в 16:28

    Часовой пояс: GMT + 2



    Вы не можете начинать темы
    Вы не можете отвечать на сообщения
    Вы не можете редактировать свои сообщения
    Вы не можете удалять свои сообщения
    Вы не можете голосовать в опросах
    Вы не можете прикреплять файлы к сообщениям
    Вы не можете скачивать файлы