BitTorrentTracker PerecTracker.org
BitTorrentTracker PerecTracker.org
    
Регистрация  ·  Вход
 
 · 
Забыли пароль?

  • Шпион / Spy (Пол Фиг / Paul Feig) [2015, США, Боевик, комедия, криминал, HDRip] [Расширенная версия] AVO (Юрий Живов)

    Ответить на тему
     
    Автор Сообщение

    Light

    Создавать темы 11-Июл-2016 10:33

           

    [Цитировать]

    Шпион / Spy / Расширенная версия
    Страна: США
    Жанр: Боевик, комедия, криминал
    Год выпуска: 2015
    Продолжительность: 02:10:22
    Перевод: Авторский (одноголосый закадровый) Юрий Живов
    Cубтитры: нет
    Режиссер: Пол Фиг / Paul Feig
    В ролях: Мелисса МакКарти, Джейсон Стэйтем, Джуд Лоу, Роуз Бирн, Миранда Харт, Бобби Каннавале, Морена Баккарин, Раад Рави, Джессика Чаффин, Сэм Ричардсон
    Описание: Мечтой всей жизни Сьюзан Купер было стать секретным спецагентом. Для этого она даже пошла работать в ЦРУ. Но вот только девушке не так уж повезло: она является сотрудником наиболее низкой ступени – Сьюзан занимает место аналитика. Никакого дальнейшего продвижения по карьерной лестнице ей не светит. Да и личная жизнь не очень-то и клеится у героини. Она не входит в число девушек с красивой внешностью. Сьюзан – обычная девушка с пышными формами, которые не очень привлекают к ней мужчин. Но, несмотря на неудачи в отношениях с противоположным полом, она все же таит надежду на реализацию своей главной мечты, связанной с работой. Если бы ей только выпал какой-нибудь шанс проявить себя, она бы тут же воспользовалась им. И вот судьба не обходит стороной эту женщину и решает, что наступил и ее час. Самому лучшему агенту было поручено секретное задание, во время которого ему необходимо было установить, где находится ядерная бомба. Но, при стечении случайных обстоятельств, он застрелил единственного человека, который владел нужными сведениями. Через некоторый период времени у службы разведки появляется информация о том, что есть еще один человек, знающий о местонахождении бомбы – это Рейна Боянова. Только вот никто не знает, как подойти к этой девушке, ведь каким-то образом ей известны в лицо все секретные агенты ЦРУ. Руководство начинает искать человека, который был бы в курсе всего происходящего, но при этом еще не успел засветиться. И вот тут происходит выход Сьюзан Купер. Она именно та, кто им нужен. Не остается никакого другого выбора, как только воспользоваться услугами аналитика. Однако миссия довольно сложная, сможет ли героиня справиться со всеми задачами?
    Рейтинг : -- IMDB / 7,1
    Сэмпл: http://multi-up.com/1108979
    Качество видео: HDRip
    Формат видео: AVI
    Видео: XviD, 688x228, (2,40:1), 23,976 fps, 1148 Кбит/сек, 8 бит
    Аудио: Русский (AC-3, 6 ch (Front: L C R, Side: L R, LFE), 48,0 KHz, 448 Kbps)

    MediaInfo

    Общее
    Полное имя : F:\Видеофильмы\В и д е о\Шпион (боевик, комедия 2015г Живов).avi
    Формат : AVI
    Формат/Информация : Audio Video Interleave
    Размер файла : 1,46 Гбайт
    Продолжительность : 2 ч. 10 м.
    Общий поток : 1605 Кбит/сек
    Программа кодирования : VirtualDubModRus 1.5.10.2 (build 2542/release)
    Библиотека кодирования : VirtualDubMod build 2542/release
    Видео
    Идентификатор : 0
    Формат : MPEG-4 Visual
    Профиль формата : Advanced Simple@L5
    Параметр BVOP формата : 1
    Параметр QPel формата : Нет
    Параметр GMC формата : Без точки перехода
    Параметр матрицы формата : Выборочная
    Идентификатор кодека : XVID
    Идентификатор кодека/Подсказка : XviD
    Продолжительность : 2 ч. 10 м.
    Битрейт : 1148 Кбит/сек
    Ширина : 688 пикселей
    Высота : 288 пикселей
    Соотношение сторон : 2,40:1
    Частота кадров : 23,976 (23976/1000) кадра/сек
    Цветовое пространство : YUV
    Субдискретизация насыщенности : 4:2:0
    Битовая глубина : 8 бит
    Тип развёртки : Прогрессивная
    Метод сжатия : С потерями
    Бит/(Пиксели*Кадры) : 0.242
    Размер потока : 1,05 Гбайт (72%)
    Библиотека кодирования : XviD 73
    Аудио
    Идентификатор : 1
    Формат : AC-3
    Формат/Информация : Audio Coding 3
    Расширение режима : CM (complete main)
    Параметр Endianness формата : Big
    Идентификатор кодека : 2000
    Продолжительность : 2 ч. 10 м.
    Вид битрейта : Постоянный
    Битрейт : 448 Кбит/сек
    Каналы : 6 каналов
    Расположение каналов : Front: L C R, Side: L R, LFE
    Частота : 48,0 КГц
    Частота кадров : 31,250 кадров/сек (1536 spf)
    Метод сжатия : С потерями
    Размер потока : 418 Мбайт (28%)
    Выравнивание : Разделение по промежуткам
    Продолжительность промежутка : 42 мс. (1,00 видеокадр)
    Время предзагрузки промежутка : 500 мс.
    Заголовок : Авторский Ю.Живов

    Скриншот c названием фильма

    Скриншоты

    Скачать .torrent

    Скачать торрент-файл бесплатно и на максимальной скорости!

    Как скачивать? · Что такое торрент? · Рейтинг и ограничения

    !ВНИМАНИЕ!
    Сайт не распространяет и не хранит электронные версии произведений, а занимается лишь лишь предоставлением доступа к создаваемому пользователями каталогу ссылок на торрент-файлы, которые содержат только списки хеш-сумм, убедительная просьба с жалобами обращаться напрямую к пользователю. Файлы для обмена на трекере предоставлены пользователями сайта, и администрация не несёт ответственности за их содержание. Просьба не заливать файлы, защищенные авторскими правами, а также файлы нелегального содержания!


    _________________
    [Профиль] [ЛС]
    Показать сообщения:    
    Ответить на тему

    Текущее время: Сегодня, в 08:10

    Часовой пояс: GMT + 2



    Вы не можете начинать темы
    Вы не можете отвечать на сообщения
    Вы не можете редактировать свои сообщения
    Вы не можете удалять свои сообщения
    Вы не можете голосовать в опросах
    Вы не можете прикреплять файлы к сообщениям
    Вы не можете скачивать файлы