BitTorrentTracker PerecTracker.org
BitTorrentTracker PerecTracker.org
    
Регистрация  ·  Вход
 
 · 
Забыли пароль?

  • Я вышла замуж за незнакомца / J\'ai epouse un inconnu (Серж Мейнар / Serge Meynard) [2015, Франция, детектив, триллер, экранизация, DVB] Original (Fre) + Sub (Rus, Eng, Fre, Deu)

    Ответить на тему
     
    Автор Сообщение

    Light

    Создавать темы 11-Июл-2016 10:33

           

    [Цитировать]

    Я вышла замуж за незнакомца
    J'ai epouse un inconnu-Страна: Франция
    Жанр: детектив, триллер, экранизация
    Год выпуска: 2015
    Продолжительность: 01:32:48Перевод: Субтитры (русский перевод М.Кузиной, Éclair Media)
    Cубтитры: русские, английские, французские, немецкие, нидерландские
    Оригинальная аудиодорожка: французский
    Режиссер: Серж Мейнар / Serge Meynard
    В ролях: Дебора Франсуа / Déborah François (Emma), Филипп Бас / Philippe Bas (David), Самира Лашхаб / Samira Lachhab (Soraya Lakhdar), Серж Рябукен / Serge Riaboukine (Commandant Loison), Грегори Деранжер / Grégori Derangère (Aurélien), Кристина Читти / Christine Citti (Dominique)
    Описание: по роману американской писательницы Патриции Макдональд / Patricia MacDonald "Я вышла замуж за незнакомца / Married to a Stranger" (2006).
    Для медового меяца молодожены Эмма и Дэвид выбрали домик в лесу. Но их поездка превращается в трагедию. На женщину напал неизвестный с топором. Эмма чудом избежала смерти. Для полиции основным подозреваемым становится Дэвид, чьи отпечатки обнаружили на топоре, у него отсутствовало алиби, и он отказывался от сотрудничества со следствием. Это рождает у Эммы сомнение: хорошо ли она знает мужчину, за которого вышла замуж?
    Доп. информация: Hot Bird (13.0°E) TV5MONDE Europe DVB-S

    Качество видео: DVB
    Формат видео: MKV
    Видео: MPEG Video 2, 720x576@1024x576 (16:9), 25 fps, ~2897 kbps avg, 0.279 bit/pixel
    Аудио: MPEG Audio 2, 2 ch, 48 kHz, 192 kbps - французский
    Формат субтитров: softsub (SRT)

    Пример субтитров

    100:00:17,966 --> 00:00:20,966Подождите меня, пожалуйста.
    200:00:28,321 --> 00:00:30,671-3дравствуйте, доктор.-3дравствуйте.
    300:00:30,671 --> 00:00:32,362Не слушает.
    400:00:32,362 --> 00:00:35,362Привезите мою мамуили я прыгну!
    500:00:39,960 --> 00:00:41,999Хватит, Тео.
    600:00:41,999 --> 00:00:44,999Я хочу видеть маму.
    700:00:45,197 --> 00:00:47,522Послушай, Тео.
    800:00:47,522 --> 00:00:49,962Послушай меня.
    900:00:49,962 --> 00:00:52,962Никто не запрещаеттвоей матери к тебе приезжать.
    1000:00:53,114 --> 00:00:55,485Неправда!
    1100:00:55,485 --> 00:00:58,485Тео!
    1200:00:59,523 --> 00:01:02,523Слезай.Хватит дурака валять.
    1300:01:03,995 --> 00:01:06,115Я уговорю ее приехать.
    1400:01:06,115 --> 00:01:09,115Обещаю.Я сама позвоню твоей маме.
    1500:01:09,399 --> 00:01:12,399Ладно?
    1600:01:19,246 --> 00:01:22,246Черт...
    1700:01:26,394 --> 00:01:28,082На 10 минут опаздывает.
    1800:01:28,082 --> 00:01:30,959Не волнуйся.Приедет.
    1900:01:30,959 --> 00:01:32,878Надеюсь,ничего не случилось.
    2000:01:32,878 --> 00:01:35,878Да нет.Просто закопалась.

    MediaInfo

    GeneralUnique ID : 250448475715110190832779238147323939137 (0xBC6A9F3438B4EC6A84317AAE8C6D4941)Complete name : [apreder]J'ai_epouse_un_inconnu(2015)DVB.mkvFormat : MatroskaFormat version : Version 2File size : 2.04 GiBDuration : 1 h 32 minOverall bit rate : 3 152 kb/sMovie name : J'ai йpousй un inconnuReleased date : 2015-10-09Encoded date : UTC 2016-07-09 10:29:48Writing application : mkvmerge v9.2.0 ('Photograph') 64bitWriting library : libebml v1.3.3 + libmatroska v1.4.4Cover : YesAttachments : cover.jpg / small_cover.jpgACTOR : Dйborah Franзois, Philippe Bas, Christine CittiDIRECTOR : Serge MeynardGENRE : Drama, ThrillerIMDB : tt4236464KEYWORDS : perectracker.orgLAW_RATING : 16+
    VideoID : 1Format : MPEG VideoFormat version : Version 2Format profile : Main@MainFormat settings, BVOP : YesFormat settings, Matrix : CustomFormat settings, GOP : M=4, N=12Format settings, picture structure : FrameCodec ID : V_MPEG2Codec ID/Info : MPEG 1 or 2 VideoDuration : 1 h 32 minBit rate : 2 897 kb/sMaximum bit rate : 3 200 kb/sWidth : 720 pixelsHeight : 576 pixelsDisplay aspect ratio : 16:9Frame rate mode : ConstantFrame rate : 25.000 FPSStandard : PALColor space : YUVChroma subsampling : 4:2:0Bit depth : 8 bitsScan type : InterlacedScan order : Top Field FirstCompression mode : LossyBits/(Pixel*Frame) : 0.279Stream size : 1.88 GiB (92%)Default : YesForced : No
    AudioID : 2Format : MPEG AudioFormat version : Version 1Format profile : Layer 2Mode : Joint stereoMode extension : Intensity Stereo + MS StereoCodec ID : A_MPEG/L2Codec ID/Hint : MP2Duration : 1 h 32 minBit rate mode : ConstantBit rate : 192 kb/sChannel(s) : 2 channelsSampling rate : 48.0 kHzCompression mode : LossyStream size : 127 MiB (6%)Language : FrenchDefault : YesForced : No
    Text #1ID : 3Format : UTF-8Codec ID : S_TEXT/UTF8Codec ID/Info : UTF-8 Plain TextLanguage : RussianDefault : NoForced : No
    Text #2ID : 4Format : UTF-8Codec ID : S_TEXT/UTF8Codec ID/Info : UTF-8 Plain TextLanguage : EnglishDefault : NoForced : No
    Text #3ID : 5Format : UTF-8Codec ID : S_TEXT/UTF8Codec ID/Info : UTF-8 Plain TextLanguage : FrenchDefault : NoForced : No
    Text #4ID : 6Format : UTF-8Codec ID : S_TEXT/UTF8Codec ID/Info : UTF-8 Plain TextLanguage : GermanDefault : NoForced : No
    Text #5ID : 7Format : UTF-8Codec ID : S_TEXT/UTF8Codec ID/Info : UTF-8 Plain TextLanguage : DutchDefault : NoForced : No

    Скриншот c названием фильма

    Скриншоты


    Резервные скриншоты


    -
    Скачать .torrent

    Скачать торрент-файл бесплатно и на максимальной скорости!

    Как скачивать? · Что такое торрент? · Рейтинг и ограничения

    !ВНИМАНИЕ!
    Сайт не распространяет и не хранит электронные версии произведений, а занимается лишь лишь предоставлением доступа к создаваемому пользователями каталогу ссылок на торрент-файлы, которые содержат только списки хеш-сумм, убедительная просьба с жалобами обращаться напрямую к пользователю. Файлы для обмена на трекере предоставлены пользователями сайта, и администрация не несёт ответственности за их содержание. Просьба не заливать файлы, защищенные авторскими правами, а также файлы нелегального содержания!


    _________________
    [Профиль] [ЛС]
    Показать сообщения:    
    Ответить на тему

    Текущее время: Сегодня, в 13:56

    Часовой пояс: GMT + 2



    Вы не можете начинать темы
    Вы не можете отвечать на сообщения
    Вы не можете редактировать свои сообщения
    Вы не можете удалять свои сообщения
    Вы не можете голосовать в опросах
    Вы не можете прикреплять файлы к сообщениям
    Вы не можете скачивать файлы