BitTorrentTracker PerecTracker.org
BitTorrentTracker PerecTracker.org
    
Регистрация  ·  Вход
 
 · 
Забыли пароль?

  • Кловерфилд, 10 / 10 Cloverfield Lane (Дэн Трактенберг / Dan Trachtenberg) [2016, США, ужасы, фантастика, триллер, детектив, BDRip 720p] Dub + Sub Rus, Eng + Original Eng

    Ответить на тему
     
    Автор Сообщение

    Light

    Создавать темы 10-Июл-2016 22:04

           

    [Цитировать]

    -Кловерфилд, 10 / 10 Cloverfield Lane-Страна: США
    Студия: Paramount Pictures, Bad Robot
    Жанр: ужасы, фантастика, триллер, детектив
    Год выпуска: 2016
    Продолжительность: 01:43:34
    Перевод: Профессиональный (дублированный)
    Cубтитры: русские, английские
    Оригинальная аудиодорожка: английский-Режиссер: Дэн Трактенберг / Dan Trachtenberg
    В ролях: Джон Гудман, Мэри Элизабет Уинстэд, Джон Галлахер мл., Дуглас М. Гриффин, Сюзанн Крайер, Брэдли Купер, Сумали Монтано, Фрэнк Моттек-Описание: Проснувшись после автомобильной аварии, девушка оказывается в подвале человека, утверждающего, что он спас ей жизнь от химической атаки, которая сделала мир за пределами бункера непригодным для жизни.-Сэмпл-Тип релиза: BDRip 720p - HiDt
    Контейнер: MKV
    Видео: MPEG-4 AVC Video 8130 kbps 1280 x 534 p / 23,976 fps / 16:9 / High Profile 4.1
    Аудио: Dolby Digital Audio Russian 5.1 / 48 kHz / 640 kbps
    Аудио 2: Dolby Digital Audio English 5.1 / 48 kHz / 640 kbps
    Формат субтитров: softsub (SRT)

    MI

    GeneralUnique ID : 174803501414793007843194984538697586969 (0x8381EE05CA3E85208BB692AD1B6F5919)Complete name : Z:\На хранении\Кловерфилд, 10 (2016. 10 Cloverfield Lane) 720p.mkvFormat : MatroskaFormat version : Version 4 / Version 2File size : 6.81 GiBDuration : 1h 43mnOverall bit rate : 9 412 KbpsMovie name : Release for RuTrackerEncoded date : UTC 2016-07-08 00:35:04Writing application : mkvmerge v9.0.1 ('Obstacles') 64bitWriting library : libebml v1.3.3 + libmatroska v1.4.4Cover : YesAttachments : Cover.jpg
    VideoID : 1Format : AVCFormat/Info : Advanced Video CodecFormat profile : High@L4.1Format settings, CABAC : YesFormat settings, ReFrames : 12 framesCodec ID : V_MPEG4/ISO/AVCDuration : 1h 43mnBit rate : 8 130 KbpsWidth : 1 280 pixelsHeight : 534 pixelsDisplay aspect ratio : 2.40:1Frame rate mode : ConstantFrame rate : 23.976 (24000/1001) fpsColor space : YUVChroma subsampling : 4:2:0Bit depth : 8 bitsScan type : ProgressiveBits/(Pixel*Frame) : 0.496Stream size : 5.88 GiB (86%)Title : 10.Cloverfield.Lane.2016.720p.BluRay.DD5.1.x264-HiDtWriting library : x264 core 148 r2638 7599210Encoding settings : cabac=1 / ref=12 / deblock=1:-3:-3 / analyse=0x3:0x133 / me=tesa / subme=11 / psy=1 / psy_rd=1.00:0.00 / mixed_ref=1 / me_range=24 / chroma_me=1 / trellis=2 / 8x8dct=1 / cqm=0 / deadzone=21,11 / fast_pskip=0 / chroma_qp_offset=-2 / threads=12 / lookahead_threads=3 / sliced_threads=0 / nr=0 / decimate=1 / interlaced=0 / bluray_compat=0 / constrained_intra=0 / bframes=10 / b_pyramid=2 / b_adapt=2 / b_bias=0 / direct=3 / weightb=1 / open_gop=0 / weightp=2 / keyint=240 / keyint_min=23 / scenecut=40 / intra_refresh=0 / rc_lookahead=60 / rc=crf / mbtree=0 / crf=16.0 / qcomp=0.73 / qpmin=0 / qpmax=69 / qpstep=4 / vbv_maxrate=62500 / vbv_bufsize=78125 / crf_max=0.0 / nal_hrd=none / filler=0 / ip_ratio=1.34 / pb_ratio=1.18 / aq=1:0.80Language : EnglishDefault : YesForced : No
    Audio #1ID : 2Format : AC-3Format/Info : Audio Coding 3Mode extension : CM (complete main)Format settings, Endianness : BigCodec ID : A_AC3Duration : 1h 43mnBit rate mode : ConstantBit rate : 640 KbpsChannel(s) : 6 channelsChannel positions : Front: L C R, Side: L R, LFESampling rate : 48.0 KHzFrame rate : 31.250 fps (1536 spf)Compression mode : LossyStream size : 474 MiB (7%)Title : ДубляжLanguage : RussianDefault : YesForced : No
    Audio #2ID : 3Format : AC-3Format/Info : Audio Coding 3Mode extension : CM (complete main)Format settings, Endianness : BigCodec ID : A_AC3Duration : 1h 43mnBit rate mode : ConstantBit rate : 640 KbpsChannel(s) : 6 channelsChannel positions : Front: L C R, Side: L R, LFESampling rate : 48.0 KHzFrame rate : 31.250 fps (1536 spf)Compression mode : LossyStream size : 474 MiB (7%)Language : EnglishDefault : NoForced : No
    Text #1ID : 4Format : UTF-8Codec ID : S_TEXT/UTF8Codec ID/Info : UTF-8 Plain TextDuration : 1h 32mnBit rate : 53 bpsCount of elements : 748Stream size : 36.6 KiB (0%)Language : RussianDefault : NoForced : No
    Text #2ID : 5Format : UTF-8Codec ID : S_TEXT/UTF8Codec ID/Info : UTF-8 Plain TextDuration : 1h 32mnBit rate : 36 bpsCount of elements : 843Stream size : 24.8 KiB (0%)Language : EnglishDefault : NoForced : No
    Text #3ID : 6Format : UTF-8Codec ID : S_TEXT/UTF8Codec ID/Info : UTF-8 Plain TextDuration : 1h 36mnBit rate : 40 bpsCount of elements : 1048Stream size : 28.3 KiB (0%)Title : SDHLanguage : EnglishDefault : NoForced : No
    Menu00:00:00.000 : en:00:00:00.00000:05:55.605 : en:00:05:55.60500:14:52.517 : en:00:14:52.51700:19:18.157 : en:00:19:18.15700:24:11.992 : en:00:24:11.99200:32:21.940 : en:00:32:21.94000:42:59.243 : en:00:42:59.24300:47:47.740 : en:00:47:47.74000:53:37.089 : en:00:53:37.08900:57:00.626 : en:00:57:00.62601:03:10.745 : en:01:03:10.74501:11:20.193 : en:01:11:20.19301:15:49.420 : en:01:15:49.42001:24:21.265 : en:01:24:21.26501:28:19.085 : en:01:28:19.08501:37:31.512 : en:01:37:31.512
    Скриншоты

    Зеркало


    Цитата:
    Цитата:

    Скачать .torrent

    Скачать торрент-файл бесплатно и на максимальной скорости!

    Как скачивать? · Что такое торрент? · Рейтинг и ограничения

    !ВНИМАНИЕ!
    Сайт не распространяет и не хранит электронные версии произведений, а занимается лишь лишь предоставлением доступа к создаваемому пользователями каталогу ссылок на торрент-файлы, которые содержат только списки хеш-сумм, убедительная просьба с жалобами обращаться напрямую к пользователю. Файлы для обмена на трекере предоставлены пользователями сайта, и администрация не несёт ответственности за их содержание. Просьба не заливать файлы, защищенные авторскими правами, а также файлы нелегального содержания!


    _________________
    [Профиль] [ЛС]
    Показать сообщения:    
    Ответить на тему

    Текущее время: Сегодня, в 20:09

    Часовой пояс: GMT + 2



    Вы не можете начинать темы
    Вы не можете отвечать на сообщения
    Вы не можете редактировать свои сообщения
    Вы не можете удалять свои сообщения
    Вы не можете голосовать в опросах
    Вы не можете прикреплять файлы к сообщениям
    Вы не можете скачивать файлы