BitTorrentTracker PerecTracker.org
BitTorrentTracker PerecTracker.org
    
Регистрация  ·  Вход
 
 · 
Забыли пароль?

  • Кловерфилд, 10 / 10 Cloverfield Lane (Дэн Трактенберг / Dan Trachtenberg) [2016, США, ужасы, фантастика, триллер, детектив, BDRip 1080p] Dub + Sub Rus, Eng + Original Eng

    Ответить на тему
     
    Автор Сообщение

    Light

    Создавать темы 10-Июл-2016 22:04

           

    [Цитировать]

    -Кловерфилд, 10 / 10 Cloverfield Lane-Страна: США
    Студия: Paramount Pictures, Bad Robot
    Жанр: ужасы, фантастика, триллер, детектив
    Год выпуска: 2016
    Продолжительность: 01:43:34
    Перевод: Профессиональный (дублированный)
    Cубтитры: русские, английские
    Оригинальная аудиодорожка: английский-Режиссер: Дэн Трактенберг / Dan Trachtenberg
    В ролях: Джон Гудман, Мэри Элизабет Уинстэд, Джон Галлахер мл., Дуглас М. Гриффин, Сюзанн Крайер, Брэдли Купер, Сумали Монтано, Фрэнк Моттек-Описание: Проснувшись после автомобильной аварии, девушка оказывается в подвале человека, утверждающего, что он спас ей жизнь от химической атаки, которая сделала мир за пределами бункера непригодным для жизни.-Сэмпл-Тип релиза: BDRip 1080p
    Контейнер: MKV
    Видео: MPEG-4 AVC Video 17857 kbps 1920x800p / 23,976 fps / 16:9 / High Profile 4.1
    Аудио: Dolby Digital Audio Russian 5.1 / 48 kHz / 640 kbps
    Аудио 2: English / DTS-ES Audio / 6.1 / 48 kHz / 1509 kbps
    Формат субтитров: softsub (SRT)

    Видеоряд от TTO

    Movie iNFO
    10.Cloverfield.Lane.2016.1080p.BluRay.DD-EX.x264-TTO
    Release Size.........: 13.5 GiBRuntime..............: 1:43:35 (h:m:s)DXVA Compliant.......: YesVideo Codec..........: x264, High@L4.1Framerate............: 23.976Bitrate..............: Variable ~ 17857 KbpsAspect.Ratio.........: 2.40:1Resolution...........: 1920x800Audio................: English DD-EX 6ch @640 KbpsAudio.2..............: Commentary by Director Dan Trachtenberg and Producer J.J. Abrams 2ch @96 kbpsChapters.............: Yes ~ Numbered !Source...............: BD50 ~ M-Team ~ Thanks!Subtitles............: English ~ English SDH. (srt) ~ Spanish ~ French ~ Portuguese. (pgs)Encoder..............: GreyWolf
    x264 Log
    x264 [info]: frame I:931 Avg QP:13.46 size:215685x264 [info]: frame P:28818 Avg QP:14.75 size:124406x264 [info]: frame B:119257 Avg QP:16.29 size: 84578x264 [info]: consecutive B-frames: 1.5% 1.8% 5.3% 4.3% 14.4% 63.9% 5.5% 1.3% 1.9%Source ~ TTO



    MI

    GeneralUnique ID : 228897317005693568760079349041382906006 (0xAC34050B21E22A29BD395FB7E1C55896)Complete name : Z:\На хранении\Кловерфилд, 10 (2016. 10 Cloverfield Lane) 1080p.mkvFormat : MatroskaFormat version : Version 4 / Version 2File size : 14.5 GiBDuration : 1h 43mnOverall bit rate : 20.0 MbpsMovie name : Release for RuTrackerEncoded date : UTC 2016-07-08 02:08:44Writing application : mkvmerge v9.0.1 ('Obstacles') 64bitWriting library : libebml v1.3.3 + libmatroska v1.4.4Cover : YesAttachments : Cover.jpg
    VideoID : 1Format : AVCFormat/Info : Advanced Video CodecFormat profile : High@L4.1Format settings, CABAC : YesFormat settings, ReFrames : 5 framesCodec ID : V_MPEG4/ISO/AVCDuration : 1h 43mnBit rate : 17.9 MbpsWidth : 1 920 pixelsHeight : 800 pixelsDisplay aspect ratio : 2.40:1Frame rate mode : ConstantFrame rate : 23.976 (24000/1001) fpsColor space : YUVChroma subsampling : 4:2:0Bit depth : 8 bitsScan type : ProgressiveBits/(Pixel*Frame) : 0.485Stream size : 12.9 GiB (89%)Title : 10.Cloverfield.Lane.2016.1080p.BluRay.DD-EX.x264-TTOWriting library : x264 core 148 r2665+53 6629127 t_mod_Custom [8-bit@all X86_64]Encoding settings : cabac=1 / ref=5 / deblock=1:-3:-3 / analyse=0x3:0x133 / me=umh / subme=11 / psy=1 / fade_compensate=0.00 / psy_rd=1.05:0.00 / mixed_ref=1 / me_range=32 / chroma_me=1 / trellis=2 / 8x8dct=1 / cqm=0 / deadzone=21,11 / fast_pskip=0 / chroma_qp_offset=-2 / threads=16 / lookahead_threads=2 / sliced_threads=0 / nr=0 / decimate=0 / interlaced=0 / bluray_compat=0 / constrained_intra=0 / fgo=0 / bframes=8 / b_pyramid=2 / b_adapt=2 / b_bias=0 / direct=3 / weightb=1 / open_gop=0 / weightp=2 / keyint=250 / keyint_min=23 / scenecut=40 / intra_refresh=0 / rc_lookahead=150 / rc=crf / mbtree=0 / crf=16.7000 / qcomp=0.70 / qpmin=0:0:0 / qpmax=69:69:69 / qpstep=4 / vbv_maxrate=50000 / vbv_bufsize=62500 / crf_max=0.0 / nal_hrd=none / filler=0 / ip_ratio=1.30 / pb_ratio=1.20 / aq=3:0.65 / aq-sensitivity=10.00 / aq-factor=1.00:1.00:1.00 / aq2=0 / aq3=0Language : EnglishDefault : YesForced : NoColor range : LimitedMatrix coefficients : BT.709
    Audio #1ID : 2Format : AC-3Format/Info : Audio Coding 3Mode extension : CM (complete main)Format settings, Endianness : BigCodec ID : A_AC3Duration : 1h 43mnBit rate mode : ConstantBit rate : 640 KbpsChannel(s) : 6 channelsChannel positions : Front: L C R, Side: L R, LFESampling rate : 48.0 KHzFrame rate : 31.250 fps (1536 spf)Compression mode : LossyStream size : 474 MiB (3%)Title : ДубляжLanguage : RussianDefault : YesForced : No
    Audio #2ID : 3Format : DTSFormat/Info : Digital Theater SystemsFormat profile : ES Discrete / CoreMode : 16Format settings, Endianness : BigCodec ID : A_DTSDuration : 1h 43mnBit rate mode : ConstantBit rate : 1 509 KbpsChannel(s) : 7 channels / 6 channelsChannel positions : Front: L C R, Side: L R, Back: C, LFE / Front: L C R, Side: L R, LFESampling rate : 48.0 KHzFrame rate : 93.750 fps (512 spf)Bit depth : 24 bitsCompression mode : LossyStream size : 1.09 GiB (8%)Language : EnglishDefault : NoForced : No
    Text #1ID : 4Format : UTF-8Codec ID : S_TEXT/UTF8Codec ID/Info : UTF-8 Plain TextDuration : 1h 32mnBit rate : 53 bpsCount of elements : 748Stream size : 36.6 KiB (0%)Language : RussianDefault : NoForced : No
    Text #2ID : 5Format : UTF-8Codec ID : S_TEXT/UTF8Codec ID/Info : UTF-8 Plain TextDuration : 1h 32mnBit rate : 36 bpsCount of elements : 843Stream size : 24.8 KiB (0%)Language : EnglishDefault : NoForced : No
    Text #3ID : 6Format : UTF-8Codec ID : S_TEXT/UTF8Codec ID/Info : UTF-8 Plain TextDuration : 1h 36mnBit rate : 40 bpsCount of elements : 1048Stream size : 28.3 KiB (0%)Title : SDHLanguage : EnglishDefault : NoForced : No
    Menu00:00:00.000 : en:Chapter 0100:05:55.605 : en:Chapter 0200:14:52.517 : en:Chapter 0300:19:18.157 : en:Chapter 0400:24:11.992 : en:Chapter 0500:32:21.940 : en:Chapter 0600:42:59.243 : en:Chapter 0700:47:47.740 : en:Chapter 0800:53:37.089 : en:Chapter 0900:57:00.626 : en:Chapter 1001:03:10.745 : en:Chapter 1101:11:20.193 : en:Chapter 1201:15:49.420 : en:Chapter 1301:24:21.265 : en:Chapter 1401:28:19.085 : en:Chapter 1501:37:31.512 : en:Chapter 16
    Скриншоты

    Зеркало


    Цитата:
    Цитата:

    Скачать .torrent

    Скачать торрент-файл бесплатно и на максимальной скорости!

    Как скачивать? · Что такое торрент? · Рейтинг и ограничения

    !ВНИМАНИЕ!
    Сайт не распространяет и не хранит электронные версии произведений, а занимается лишь лишь предоставлением доступа к создаваемому пользователями каталогу ссылок на торрент-файлы, которые содержат только списки хеш-сумм, убедительная просьба с жалобами обращаться напрямую к пользователю. Файлы для обмена на трекере предоставлены пользователями сайта, и администрация не несёт ответственности за их содержание. Просьба не заливать файлы, защищенные авторскими правами, а также файлы нелегального содержания!


    _________________
    [Профиль] [ЛС]
    Показать сообщения:    
    Ответить на тему

    Текущее время: Сегодня, в 13:00

    Часовой пояс: GMT + 2



    Вы не можете начинать темы
    Вы не можете отвечать на сообщения
    Вы не можете редактировать свои сообщения
    Вы не можете удалять свои сообщения
    Вы не можете голосовать в опросах
    Вы не можете прикреплять файлы к сообщениям
    Вы не можете скачивать файлы