BitTorrentTracker PerecTracker.org
BitTorrentTracker PerecTracker.org
    
Регистрация  ·  Вход
 
 · 
Забыли пароль?

  • Бэйтаун вне закона / The Baytown Outlaws (Бэрри Баттлс / Barry Battles) [2012, США, боевик, комедия, криминал, BDRip] AVO (Гаврилов)

    Ответить на тему
     
    Автор Сообщение

    Light

    Создавать темы 10-Июл-2016 17:52

           

    [Цитировать]

    Бэйтаун вне закона / The Baytown OutlawsСтрана: США
    Жанр: боевик, комедия, криминал
    Год выпуска: 2012
    Продолжительность: 01:38:38
    Перевод: Авторский (одноголосый закадровый) Андрей Гаврилов
    Cубтитры: нет
    Режиссер: Бэрри Баттлс / Barry Battles
    В ролях: Клейн Кроуфорд, Дэниэл Кадмор, Трэвис Фиммел, Ева Лонгория, Билли Боб Торнтон, Андре Брогер, Пол Уэсли, Томас Сэнгстер, Майкл Рапапорт, Зои Белл
    Описание: События развернутся вокруг трех братьев, которые всегда любили конфликты и хорошо подраться. Их нанимают для того, чтобы помочь одной женщине уберечь ее крестника от рук жестокого отчима. Парни входят во вкус и проливают реки чужой крови, в основном похитителей.

    Качество видео: BDRip
    Формат видео: AVI
    Видео кодек: XviD
    Аудио кодек: AC3
    Видео: 720x304 (2.37:1), 23.976 fps, XviD build 65 ~1714 kbps avg, 0.33 bit/pixel
    Аудио: 48 kHz, AC3 Dolby Digital, 3/2 (L,C,R,l,r) + LFE ch, ~384 kbps

    Доп.инфо

    за видеоряд спасибо yaroslaigor
    за Гаврилова спасибо timur

    MediaInfo

    Полное имя : Бэйтаун вне закона.avi
    Формат : AVI
    Формат/Информация : Audio Video Interleave
    Размер файла : 1,45 Гбайт
    Продолжительность : 1 ч. 38 м.
    Общий поток : 2108 Кбит/сек
    Программа кодирования : VirtualDubMod 1.5.10.3 | www.virtualdub-fr.org || (build 2550/release)
    Видео
    Идентификатор : 0
    Формат : MPEG-4 Visual
    Профиль формата : Advanced Simple@L5
    Параметр BVOP формата : 1
    Параметр QPel формата : Нет
    Параметр GMC формата : Без точки перехода
    Параметр матрицы формата : Выборочная
    Идентификатор кодека : XVID
    Идентификатор кодека/Подсказка : XviD
    Продолжительность : 1 ч. 38 м.
    Битрейт : 1714 Кбит/сек
    Ширина : 720 пикселей
    Высота : 304 пикселя
    Соотношение сторон : 2,35:1
    Частота кадров : 23,976 кадра/сек
    Цветовое пространство : YUV
    Субдискретизация насыщенности : 4:2:0
    Битовая глубина : 8 бит
    Тип развёртки : Прогрессивная
    Метод сжатия : С потерями
    Бит/(Пиксели*Кадры) : 0.327
    Размер потока : 1,18 Гбайт (81%)
    Библиотека кодирования : XviD 65
    Аудио
    Идентификатор : 1
    Формат : AC-3
    Формат/Информация : Audio Coding 3
    Расширение режима : CM (complete main)
    Параметр Endianness формата : Big
    Идентификатор кодека : 2000
    Продолжительность : 1 ч. 38 м.
    Вид битрейта : Постоянный
    Битрейт : 384 Кбит/сек
    Каналы : 6 каналов
    Расположение каналов : Front: L C R, Side: L R, LFE
    Частота : 48,0 КГц
    Метод сжатия : С потерями
    Размер потока : 271 Мбайт (18%)
    Выравнивание : Разделение по промежуткам
    Продолжительность промежутка : 42 мс. (1,00 видеокадр)
    Время предзагрузки промежутка : 500 мс.

    Скриншоты

    Скачать .torrent

    Скачать торрент-файл бесплатно и на максимальной скорости!

    Как скачивать? · Что такое торрент? · Рейтинг и ограничения

    !ВНИМАНИЕ!
    Сайт не распространяет и не хранит электронные версии произведений, а занимается лишь лишь предоставлением доступа к создаваемому пользователями каталогу ссылок на торрент-файлы, которые содержат только списки хеш-сумм, убедительная просьба с жалобами обращаться напрямую к пользователю. Файлы для обмена на трекере предоставлены пользователями сайта, и администрация не несёт ответственности за их содержание. Просьба не заливать файлы, защищенные авторскими правами, а также файлы нелегального содержания!


    _________________
    [Профиль] [ЛС]
    Показать сообщения:    
    Ответить на тему

    Текущее время: Сегодня, в 23:18

    Часовой пояс: GMT + 2



    Вы не можете начинать темы
    Вы не можете отвечать на сообщения
    Вы не можете редактировать свои сообщения
    Вы не можете удалять свои сообщения
    Вы не можете голосовать в опросах
    Вы не можете прикреплять файлы к сообщениям
    Вы не можете скачивать файлы