BitTorrentTracker PerecTracker.org
BitTorrentTracker PerecTracker.org
    
Регистрация  ·  Вход
 
 · 
Забыли пароль?

  • Бэтмен против Супермена: На заре справедливости / Batman v Superman: Dawn of Justice (Зак Снайдер / Zack Snyder) [2016, США, фантастика, боевик, приключения, BDRip-AVC] Dub + Original + Sub (rus, eng)

    Ответить на тему
     
    Автор Сообщение

    rechyn

    Создавать темы 10-Июл-2016 01:07

           

    [Цитировать]

    Бэтмен против Супермена: На заре справедливости / Batman v Superman: Dawn of Justice«Who will win?»-Страна: США
    Жанр: фантастика, боевик, приключения
    Год выпуска: 2016
    Продолжительность: 02:31:40
    Перевод: Профессиональный (дублированный) (iTunes)
    Оригинальная аудиодорожка: английский
    Cубтитры: русские (форс., полные) английские (полные, SDH)
    Навигация по главам: есть
    Режиссер: Зак Снайдер / Zack Snyder
    В ролях: Генри Кавилл (Clark Kent / Superman), Бен Аффлек (Bruce Wayne / Batman), Галь Гадот (Diana Prince / Wonder Woman), Эми Адамс (Lois), Джесси Айзенберг (Lex Luthor), Джереми Айронс (Alfred), Дайан Лэйн (Martha Kent), Лоренс Фишбёрн (Perry White), Холли Хантер (Senator Finch), Скут МакНэри (Wallace Keefe), Каллэн Мулвей (Anatoli Knyazev), Тао Окамото (Mercy Graves)
    Описание: Опасаясь, что действия богоподобного супергероя так и останутся бесконтрольными, грозный и могущественный страж Готэм Сити бросает вызов самому почитаемому в наши дни спасителю Метрополиса, в то время как весь остальной мир решает, какой герой ему по-настоящему нужен. И пока Бэтмен и Супермен пребывают в состоянии войны друг с другом, возникает новая угроза, которая ставит человечество под самую большую опасность, с которой оно когда-либо сталкивалось.- -Качество: BDRip-AVC (исходник - BDRemux|BATMAN_V_SUPERMAN_DAWN_OF_JUSTICE_TC_REMUX_HDCLUB)
    Формат видео: MKV
    Видео: x264, 1152x480 (2.40:1), 23,976 fps, ~4179 kbps, 0.315 bit/pixel
    Аудио 1: 48 kHz, AC3 Dolby Digital, 3/2 (L,C,R,l,r) + LFE ch, ~384 kbps [русский]
    Аудио 2: 48 kHz, AC3 Dolby Digital, 3/2 (L,C,R,l,r) + LFE ch, ~448 kbps [английский]
    Формат субтитров: softsub (SRT)-MediaInfo | x264 log
    Format : Matroska
    Format version : Version 4 / Version 2
    File size : 5.42 GiB
    Duration : 2h 31mn
    Overall bit rate : 5 113 Kbps
    Movie name : Бэтмен против Супермена: На заре справедливости / Batman v Superman: Dawn of Justice (2016) :: AFM ::
    Encoded date : UTC 2016-07-08 07:04:20
    Writing application : mkvmerge v8.3.0 ('Over the Horizon') 32bit
    Writing library : libebml v1.3.1 + libmatroska v1.4.2
    Video
    ID : 1
    Format : AVC
    Format/Info : Advanced Video Codec
    Format profile : High@L4.1
    Format settings, CABAC : Yes
    Format settings, ReFrames : 11 frames
    Codec ID : V_MPEG4/ISO/AVC
    Duration : 2h 31mn
    Bit rate : 4 179 Kbps
    Width : 1 152 pixels
    Height : 480 pixels
    Display aspect ratio : 2.40:1
    Frame rate mode : Constant
    Frame rate : 23.976 fps
    Color space : YUV
    Chroma subsampling : 4:2:0
    Bit depth : 8 bits
    Scan type : Progressive
    Bits/(Pixel*Frame) : 0.315
    Stream size : 4.43 GiB (82%)
    Title : BDRip by AFM [RuTracker.org]
    Writing library : x264 core 148 r2705+54 9f484c1 t_mod_Custom [8-bit@all X86_64]
    Encoding settings : cabac=1 / ref=11 / deblock=1:-2:-2 / analyse=0x3:0x113 / me=umh / subme=10 / psy=1 / fade_compensate=0.00 / psy_rd=1.00:0.00 / mixed_ref=1 / me_range=32 / chroma_me=1 / trellis=2 / 8x8dct=1 / cqm=0 / deadzone=21,11 / fast_pskip=0 / chroma_qp_offset=-2 / threads=6 / lookahead_threads=1 / sliced_threads=0 / nr=0 / decimate=1 / interlaced=0 / bluray_compat=0 / constrained_intra=0 / fgo=0 / bframes=14 / b_pyramid=2 / b_adapt=2 / b_bias=0 / direct=1 / weightb=1 / open_gop=0 / weightp=2 / keyint=250 / keyint_min=23 / scenecut=40 / intra_refresh=0 / rc_lookahead=40 / rc=crf / mbtree=0 / crf=18.9000 / qcomp=0.70 / qpmin=0:0:0 / qpmax=69:69:69 / qpstep=4 / vbv_maxrate=50000 / vbv_bufsize=62500 / crf_max=0.0 / nal_hrd=none / filler=0 / ip_ratio=1.25 / pb_ratio=1.20 / aq=3:0.80 / aq-sensitivity=10.00 / aq-factor=1.00:1.00:1.00 / aq2=0 / aq3=0 / zones=206921,218189,q=27
    Language : English
    Default : Yes
    Forced : No
    Audio #1
    ID : 2
    Format : AC-3
    Format/Info : Audio Coding 3
    Mode extension : CM (complete main)
    Format settings, Endianness : Big
    Codec ID : A_AC3
    Duration : 2h 31mn
    Bit rate mode : Constant
    Bit rate : 384 Kbps
    Channel(s) : 6 channels
    Channel positions : Front: L C R, Side: L R, LFE
    Sampling rate : 48.0 KHz
    Compression mode : Lossy
    Stream size : 417 MiB (8%)
    Title : Dub, AC3 5.1 ~384 kbps
    Language : Russian
    Default : Yes
    Forced : No
    Audio #2
    ID : 3
    Format : AC-3
    Format/Info : Audio Coding 3
    Mode extension : CM (complete main)
    Format settings, Endianness : Big
    Codec ID : A_AC3
    Duration : 2h 31mn
    Bit rate mode : Constant
    Bit rate : 448 Kbps
    Channel(s) : 6 channels
    Channel positions : Front: L C R, Side: L R, LFE
    Sampling rate : 48.0 KHz
    Compression mode : Lossy
    Stream size : 486 MiB (9%)
    Title : Original, AC3 5.1 ~448 kbps
    Language : English
    Default : No
    Forced : No
    Text #1
    ID : 4
    Format : UTF-8
    Codec ID : S_TEXT/UTF8
    Codec ID/Info : UTF-8 Plain Text
    Title : forced
    Language : Russian
    Default : Yes
    Forced : No
    Text #2
    ID : 5
    Format : UTF-8
    Codec ID : S_TEXT/UTF8
    Codec ID/Info : UTF-8 Plain Text
    Language : Russian
    Default : No
    Forced : No
    Text #3
    ID : 6
    Format : UTF-8
    Codec ID : S_TEXT/UTF8
    Codec ID/Info : UTF-8 Plain Text
    Language : English
    Default : No
    Forced : No
    Text #4
    ID : 7
    Format : UTF-8
    Codec ID : S_TEXT/UTF8
    Codec ID/Info : UTF-8 Plain Text
    Title : SDH
    Language : English
    Default : No
    Forced : No
    Menu
    00:00:00.000 : en:Chapter 01
    00:09:50.047 : en:Chapter 02
    00:20:45.786 : en:Chapter 03
    00:29:58.671 : en:Chapter 04
    00:38:46.614 : en:Chapter 05
    00:49:25.920 : en:Chapter 06
    00:59:21.556 : en:Chapter 07
    01:10:06.202 : en:Chapter 08
    01:21:15.118 : en:Chapter 09
    01:30:00.310 : en:Chapter 10
    01:38:20.810 : en:Chapter 11
    01:49:57.381 : en:Chapter 12
    02:01:49.051 : en:Chapter 13
    02:10:40.412 : en:Chapter 14
    02:18:41.313 : en:Chapter 15
    02:23:50.370 : en:Chapter 16
    02:31:40.049 : en:Chapter 17

    x264

    x264 [info]: frame I:1431 Avg QP:17.30 size: 64081
    x264 [info]: frame P:47287 Avg QP:18.47 size: 36125
    x264 [info]: frame B:169471 Avg QP:20.13 size: 18097
    x264 [info]: consecutive B-frames: 3.0% 2.6% 5.4% 22.0% 16.0% 31.0% 7.3% 4.9% 2.2% 0.9% 2.3% 1.2% 0.4% 0.2% 0.5%
    x264 [info]: mb I I16..4: 6.7% 77.4% 15.8%
    x264 [info]: mb P I16..4: 1.5% 22.7% 1.9% P16..4: 30.8% 23.9% 12.7% 0.0% 0.0% skip: 6.5%
    x264 [info]: mb B I16..4: 0.1% 3.5% 0.2% B16..8: 40.7% 14.4% 5.4% direct: 7.3% skip:28.4% L0:45.3% L1:44.1% BI:10.6%
    x264 [info]: 8x8 transform intra:87.7% inter:62.4%
    x264 [info]: coded y,uvDC,uvAC intra: 88.5% 73.8% 46.0% inter: 37.7% 18.6% 1.8%
    x264 [info]: i16 v,h,dc,p: 41% 18% 10% 32%
    x264 [info]: i8 v,h,dc,ddl,ddr,vr,hd,vl,hu: 8% 8% 13% 9% 13% 12% 13% 10% 13%
    x264 [info]: i4 v,h,dc,ddl,ddr,vr,hd,vl,hu: 8% 7% 5% 10% 16% 14% 15% 11% 14%
    x264 [info]: i8c dc,h,v,p: 38% 27% 17% 17%
    x264 [info]: Weighted P-Frames: Y:8.0% UV:5.4%
    x264 [info]: ref P L0: 44.2% 9.4% 17.0% 7.5% 5.8% 4.3% 3.7% 2.2% 2.0% 1.8% 1.7% 0.3% 0.0%
    x264 [info]: ref B L0: 71.4% 11.5% 6.2% 3.3% 2.4% 1.9% 1.5% 1.0% 0.6% 0.2%
    x264 [info]: ref B L1: 93.9% 6.1%
    x264 [info]: kb/s:4278.38

    Скриншоты

    с названием

    ~~ Source ~~

    ~~ Rip ~~
    Скачать .torrent

    Скачать торрент-файл бесплатно и на максимальной скорости!

    Как скачивать? · Что такое торрент? · Рейтинг и ограничения

    !ВНИМАНИЕ!
    Сайт не распространяет и не хранит электронные версии произведений, а занимается лишь лишь предоставлением доступа к создаваемому пользователями каталогу ссылок на торрент-файлы, которые содержат только списки хеш-сумм, убедительная просьба с жалобами обращаться напрямую к пользователю. Файлы для обмена на трекере предоставлены пользователями сайта, и администрация не несёт ответственности за их содержание. Просьба не заливать файлы, защищенные авторскими правами, а также файлы нелегального содержания!


    _________________
    [Профиль] [ЛС]
    Показать сообщения:    
    Ответить на тему

    Текущее время: Сегодня, в 22:30

    Часовой пояс: GMT + 2



    Вы не можете начинать темы
    Вы не можете отвечать на сообщения
    Вы не можете редактировать свои сообщения
    Вы не можете удалять свои сообщения
    Вы не можете голосовать в опросах
    Вы не можете прикреплять файлы к сообщениям
    Вы не можете скачивать файлы