BitTorrentTracker PerecTracker.org
BitTorrentTracker PerecTracker.org
    
Регистрация  ·  Вход
 
 · 
Забыли пароль?

  • [ATV3] Налетчики / Marauders (Стивен С. Миллер / Steven C. Miller ) [2016, Канада, Боевик, WEB-DL, HD (1080p)] MVO + Original + sub (eng)

    Ответить на тему
     
    Автор Сообщение

    rechyn

    Создавать темы 09-Июл-2016 16:43

           

    [Цитировать]

    Налетчики / Marauders
    «The rich will pay»
    5.833 / 10 5.50 / 10
    -Год выпуска: 2016
    Страна: Канада
    Жанр: Боевик
    Продолжительность: 01:47:07
    Перевод: Любительский (многоголосый закадровый) (Студия Пиратского Дубляжа)
    Оригинальная аудиодорожка: Есть
    Cубтитры: Английские
    Режиссёр: Стивен С. Миллер
    Сценарий: Крис Сивертсон, Майкл Коуди
    Продюсер: Рози Шарбонно, Рэндолл Эмметт, Джордж Фурла
    Оператор: Брэндон Ли Кокс
    Композитор: Райан Додсон
    Художник: Нико Вилейвонгс, Аарон Баутиста, Бонни Штаух
    Монтаж: Венсан Табайон
    В ролях: Брюс Уиллис, Кристофер Мелони, Дэйв Батиста, Эдриан Гренье, Лидия Халл, Тайлер Джон Олсон, Кристофер Роб Бауэн, Ричи Чэнс, Chris Hill, Дэнни А. Абекейзер
    Мировая премьера: 1 июля 2016
    Премьера (РФ): 11 августа 2016, «MEGOGO Distribution»
    Описание: История об агенте ФБР, который нападает на след преступников, ограбивших банк и отдавших все украденные деньги на благотворительные нужды. Чем дальше продвигается расследование, тем больше главный герой убеждается в том, что у владельца банка имеются собственные секреты.-Качество исходника: WEB-DL 1080p (NNMClub)
    Качество: WEB-DL
    Тип: HD (1080p)
    Контейнер: M4V
    Видео: H.264, 1908x788, 2.40:1, 4 359 Kbps, 23.976 fps
    Аудио 1: Русский/Любительский (многоголосый закадровый) , AAC / 2.0 / 158 Kbps / 48.0 KHz
    Аудио 2: Английский/Оригинальная дорожка , AAC / 2.0 / 155 Kbps / 48.0 KHz
    Аудио 3: Русский/Любительский (многоголосый закадровый) , AC-3 / 5.1 / 384 Kbps / 48.0 KHz
    Аудио 4: Английский/Оригинальная дорожка , AC-3 / 5.1 / 384 Kbps / 48.0 KHz
    Субтитры: Английские полные
    -

    iTunes Meta Tags

    Sort Name: Marauders
    XID: Apple:vendor_id:2016-925037
    contentID: 1120931989
    Screenwriters: Крис Сивертсон, Майкл Коуди
    Producers: Рози Шарбонно, Рэндолл Эмметт, Джордж Фурла
    Director: Стивен С. Миллер
    Cast: Брюс Уиллис, Кристофер Мелони, Дэйв Батиста, Эдриан Гренье, Лидия Халл, Тайлер Джон Олсон, Кристофер Роб Бауэн, Ричи Чэнс, Chris Hill, Дэнни А. Абекейзер
    Studio: Lionsgate Premiere
    Rating: 5
    Long Description: История об агенте ФБР, который нападает на след преступников, ограбивших банк и отдавших все украденные деньги на благотворительные нужды. Чем дальше продвигается расследование, тем больше главный герой убеждается в том, что у владельца банка имеются собственные секреты.
    Description: История об агенте ФБР, который нападает на след преступников, ограбивших банк и отдавших все украденные деньги на благотворительные нужды. Чем дальше продвигается расследование, тем больше главный герой убеждается в том, что у владельца банка имеются собственные секреты.
    Release Date: 2016-07-01T08:00:00Z
    Genre: Action & Adventure
    Artist: Steven C. Miller
    Name: Marauders

    MediaInfo

    General
    Complete name : /Users/imac/HandBrake/Marauders.WEB-DL.1080p.m4v
    Format : MPEG-4
    Codec ID : M4V
    File size : 4.08 GiB
    Duration : 1h 47mn
    Overall bit rate mode : Variable
    Overall bit rate : 5 451 Kbps
    Movie name : Marauders
    Performer : Steven C. Miller
    Director : Стивен С. Миллер
    Actor : Брюс Уиллис / Кристофер Мелони / Дэйв Батиста / Эдриан Гренье / Лидия Халл / Тайлер Джон Олсон / Кристофер Роб Бауэн / Ричи Чэнс / Chris Hill / Дэнни А. Абекейзер
    Screenplay by : Крис Сивертсон / Майкл Коуди
    Producer : Рози Шарбонно / Рэндолл Эмметт / Джордж Фурла
    Production studio : Lionsgate Premiere
    Genre : Action & Adventure
    ContentType : Short Film
    Description : История об агенте ФБР, который нападает на след преступников, ограбивших банк и отдавших все украденные деньги на благотворительные нужды. Чем дальше продвигается расследование, тем больше главный герой убеждается в том, что у владельца банка имеются собственные секреты.
    Recorded date : UTC 2016-07-01 08:00:00
    Encoded date : UTC 2016-07-09 10:58:02
    Tagged date : UTC 2016-07-09 10:58:55
    Cover : Yes
    Rating : None
    Title/Sort : Marauders
    LongDescription : История об агенте ФБР, который нападает на след преступников, ограбивших банк и отдавших все украденные деньги на благотворительные нужды. Чем дальше продвигается расследование, тем больше главный герой убеждается в том, что у владельца банка имеются собственные секреты.
    AppleStoreCatalogID : 1120931989
    Vendor : Apple:vendor_id:2016-925037
    ContentRating : mpaa|R|400|
    Video #1
    ID : 1
    Format : AVC
    Format/Info : Advanced Video Codec
    Format profile : High@L4
    Format settings, CABAC : Yes
    Format settings, ReFrames : 5 frames
    Codec ID : avc1
    Codec ID/Info : Advanced Video Coding
    Duration : 1h 47mn
    Bit rate : 4 359 Kbps
    Width : 1 908 pixels
    Height : 788 pixels
    Display aspect ratio : 2.40:1
    Frame rate mode : Variable
    Frame rate : 23.976 fps
    Minimum frame rate : 23.810 fps
    Maximum frame rate : 24.390 fps
    Color space : YUV
    Chroma subsampling : 4:2:0
    Bit depth : 8 bits
    Scan type : Progressive
    Bits/(Pixel*Frame) : 0.121
    Stream size : 3.26 GiB (80%)
    Title : Main Program
    Language : English
    Encoded date : UTC 2016-07-09 10:58:02
    Tagged date : UTC 2016-07-09 10:58:10
    Color range : Limited
    Color primaries : BT.709
    Transfer characteristics : BT.709
    Matrix coefficients : BT.709
    Video #2
    ID : 8
    Format : JPEG
    Codec ID : jpeg
    Duration : 1h 47mn
    Bit rate mode : Variable
    Bit rate : 534 bps
    Width : 640 pixels
    Height : 264 pixels
    Display aspect ratio : 2.40:1
    Frame rate mode : Variable
    Frame rate : 0.002 fps
    Minimum frame rate : 0.001 fps
    Maximum frame rate : 0.003 fps
    Color space : YUV
    Chroma subsampling : 4:2:0
    Bit depth : 8 bits
    Compression mode : Lossy
    Bits/(Pixel*Frame) : 1.580
    Stream size : 358 KiB (0%)
    Title : Chapter Images
    Language : English
    Encoded date : UTC 2016-07-09 10:58:16
    Tagged date : UTC 2016-07-09 10:58:17
    Audio #1
    ID : 2
    Format : AAC
    Format/Info : Advanced Audio Codec
    Format profile : LC
    Codec ID : 40
    Duration : 1h 47mn
    Bit rate mode : Variable
    Bit rate : 158 Kbps
    Maximum bit rate : 239 Kbps
    Channel(s) : 2 channels
    Channel positions : Front: L R
    Sampling rate : 48.0 KHz
    Compression mode : Lossy
    Stream size : 121 MiB (3%)
    Title : Russian Stereo
    Language : Russian
    Encoded date : UTC 2016-07-09 10:58:02
    Tagged date : UTC 2016-07-09 10:58:12
    Audio #2
    ID : 3
    Format : AAC
    Format/Info : Advanced Audio Codec
    Format profile : LC
    Codec ID : 40
    Duration : 1h 47mn
    Bit rate mode : Variable
    Bit rate : 155 Kbps
    Maximum bit rate : 229 Kbps
    Channel(s) : 2 channels
    Channel positions : Front: L R
    Sampling rate : 48.0 KHz
    Compression mode : Lossy
    Stream size : 119 MiB (3%)
    Title : English Stereo
    Language : English
    Encoded date : UTC 2016-07-09 10:58:02
    Tagged date : UTC 2016-07-09 10:58:12
    Audio #3
    ID : 4
    Format : AC-3
    Format/Info : Audio Coding 3
    Mode extension : CM (complete main)
    Format settings, Endianness : Big
    Codec ID : ac-3
    Duration : 1h 47mn
    Bit rate mode : Constant
    Bit rate : 384 Kbps
    Channel(s) : 6 channels
    Channel positions : Front: L C R, Side: L R, LFE
    Sampling rate : 48.0 KHz
    Bit depth : 16 bits
    Compression mode : Lossy
    Stream size : 294 MiB (7%)
    Title : Russian DD 5.1
    Language : Russian
    Encoded date : UTC 2016-07-09 10:58:02
    Tagged date : UTC 2016-07-09 10:58:10
    Audio #4
    ID : 5
    Format : AC-3
    Format/Info : Audio Coding 3
    Mode extension : CM (complete main)
    Format settings, Endianness : Big
    Codec ID : ac-3
    Duration : 1h 47mn
    Bit rate mode : Constant
    Bit rate : 384 Kbps
    Channel(s) : 6 channels
    Channel positions : Front: L C R, Side: L R, LFE
    Sampling rate : 48.0 KHz
    Bit depth : 16 bits
    Compression mode : Lossy
    Stream size : 294 MiB (7%)
    Title : English DD 5.1
    Language : English
    Encoded date : UTC 2016-07-09 10:58:02
    Tagged date : UTC 2016-07-09 10:58:10
    Text
    ID : 6
    Format : Timed Text
    Muxing mode : sbtl
    Codec ID : tx3g
    Duration : 1h 39mn
    Bit rate mode : Variable
    Bit rate : 76 bps
    Stream size : 55.6 KiB (0%)
    Title : English full
    Language : English
    Encoded date : UTC 2016-07-09 10:58:02
    Tagged date : UTC 2016-07-09 10:58:10
    Menu #1
    00:00:00.000 : 1
    00:05:20.000 : 2
    00:15:11.000 : 3
    00:25:04.000 : 4
    00:35:16.000 : 5
    00:46:15.000 : 6
    00:55:59.000 : 7
    01:07:04.999 : 8
    01:17:17.000 : 9
    01:28:23.000 : 10
    01:41:22.000 : 11
    Menu #2
    ID : 7
    Codec ID : text
    Duration : 1h 47mn
    Language : English
    Encoded date : UTC 2016-07-09 10:58:12
    Tagged date : UTC 2016-07-09 10:58:12
    00:00:00.000 : 1
    00:05:20.000 : 2
    00:15:11.000 : 3
    00:25:04.000 : 4
    00:35:16.000 : 5
    00:46:15.000 : 6
    00:55:59.000 : 7
    01:07:04.999 : 8
    01:17:17.000 : 9
    01:28:23.000 : 10
    01:41:22.000 : 11
    Bit rate mode : VBR

    Скриншоты

    -

    Релиз подготовлен для просмотра на Apple TV, iPad, iPhone, iPod Touch.
    Для просмотра данного релиза на компьютере с ОС Windows рекомендуется использовать VLC media player
    Скачать .torrent

    Скачать торрент-файл бесплатно и на максимальной скорости!

    Как скачивать? · Что такое торрент? · Рейтинг и ограничения

    !ВНИМАНИЕ!
    Сайт не распространяет и не хранит электронные версии произведений, а занимается лишь лишь предоставлением доступа к создаваемому пользователями каталогу ссылок на торрент-файлы, которые содержат только списки хеш-сумм, убедительная просьба с жалобами обращаться напрямую к пользователю. Файлы для обмена на трекере предоставлены пользователями сайта, и администрация не несёт ответственности за их содержание. Просьба не заливать файлы, защищенные авторскими правами, а также файлы нелегального содержания!


    _________________
    [Профиль] [ЛС]
    Показать сообщения:    
    Ответить на тему

    Текущее время: Сегодня, в 21:59

    Часовой пояс: GMT + 2



    Вы не можете начинать темы
    Вы не можете отвечать на сообщения
    Вы не можете редактировать свои сообщения
    Вы не можете удалять свои сообщения
    Вы не можете голосовать в опросах
    Вы не можете прикреплять файлы к сообщениям
    Вы не можете скачивать файлы